<?xml version="1.0" standalone="no"?> <!DOCTYPE svg PUBLIC "-//W3C//DTD SVG 1.0//EN" "http://www.w3.org/TR/2001/REC-SVG-20010904/DTD/svg10.dtd" > <svg xmlns="http://www.w3.org/2000/svg" width="100%" height="100%">
<defs>
<font horiz-adv-x="445" id="raggmopp"><font-face
    font-family="RaggMoppRegular"
    units-per-em="1000"
    panose-1="0 0 0 0 0 0 0 0 0 0"
    ascent="802"
    descent="-337"
    alphabetic="0" />
<missing-glyph horiz-adv-x="222" />
<glyph unicode=" " glyph-name="space" horiz-adv-x="222" />
<glyph unicode="!" glyph-name="exclam" horiz-adv-x="233" d="M205 74Q205 39 181 15T121 -10Q86 -10 61 14T36 74Q36 109 61 133T121 158Q156 158 180 134T205 74V74ZM223 470Q223 446 218 420T204 366Q196 343 187 321T169 277Q163 263 157 249T144 223Q141
216 135 212T122 205Q121 205 120 205T118 205Q110 205 103 209T90 221Q85 230 80 240T69 263Q59 285 50 309T32 359Q23 389 17 417T11 470Q10 523 38 560T116 598Q168 599 195 562T223 470V470Z" />
<glyph unicode="&quot;" glyph-name="quotedbl" horiz-adv-x="306" d="M150 558Q149 535 144 512T132 464Q130 454 127 444T122 424Q119 411 107 402T80 393Q66 393 54 402T39 425Q37 435 35 446T29 469Q28 475 27 481T24 493Q20 510 18 527T15 560Q15 588 35
607T83 626Q111 626 130 606T150 558V558ZM300 558Q299 535 294 512T282 464Q280 454 277 444T272 424Q269 411 257 402T230 393Q216 393 204 402T189 425Q187 435 185 446T179 469Q178 475 177 481T174 493Q170 510 168 527T165 560Q165 588 185 607T233 626Q261
626 280 606T300 558V558Z" />
<glyph unicode="#" glyph-name="numbersign" horiz-adv-x="500" />
<glyph unicode="$" glyph-name="dollar" horiz-adv-x="567" d="M541 198Q541 155 519 117T457 51Q419 24 374 11T281 -5Q278 -5 275 -5T268 -5Q262 -5 257 -5T246 -4Q241 -4 236 -4T224 -2L210 -50Q206 -63 197 -69T177 -76Q174 -76 172 -76T167 -75Q157 -73 149
-65T142 -42Q142 -41 142 -40T142 -37Q142 -35 142 -34T143 -31L156 13Q155 13 155 13T153 14Q152 14 152 14T150 15Q146 7 140 3T125 -3Q125 -3 124 -3T123 -3Q122 -3 121 -3T119 -3Q118 -3 116 -3T113 -3Q107 -2 101 1T91 9Q60 47 43 92T26 185Q26 192 26 199T28
214Q28 221 29 228T33 243Q37 255 44 261T60 270Q62 271 63 271T67 271Q69 271 71 271T76 270Q87 267 93 259T102 237Q103 230 105 224T110 210Q120 181 139 155T184 112L219 234Q219 234 219 234T217 235Q216 235 216 235T215 236Q154 268 104 308T53 432Q53 475
72 512T123 577Q158 606 201 620T288 634Q299 634 310 634T332 631L344 673Q347 686 356 692T374 700Q375 700 376 700T378 700Q380 700 382 700T387 699Q398 696 405 688T412 665Q412 663 412 661T411 655L399 612Q413 607 426 600T452 583Q452 583 452 583T452
585Q452 586 452 586T452 587Q452 588 452 589T452 591Q451 592 451 593T451 595Q452 609 461 618T481 628Q482 628 482 628T484 628Q484 628 484 628T486 628Q487 628 487 628T489 628Q500 627 509 619T520 596Q520 593 520 590T521 583Q522 580 522 577T522 570Q521
524 501 481T446 406Q443 403 440 402T434 398Q430 397 427 397T421 396Q414 396 407 399T395 408Q391 413 389 418T387 429Q387 433 388 437T392 447Q393 449 394 451T398 456Q403 463 405 471T408 487Q408 489 408 491T407 495Q406 505 401 515T387 532Q385 534
383 535T378 538L341 409Q341 409 341 409T342 408Q342 408 342 408T342 408Q353 403 364 397T388 384Q395 380 402 376T417 367Q463 339 502 298T541 198V198ZM303 153Q303 167 297 178T281 198L251 93Q276 95 289 111T303 153V153ZM308 549Q300 547 292 543T276
532Q266 523 261 512T255 488Q255 475 261 465T279 445L308 549V549Z" />
<glyph unicode="%" glyph-name="percent" horiz-adv-x="500" />
<glyph unicode="&amp;" glyph-name="ampersand" horiz-adv-x="815" d="M777 521Q777 519 777 518T778 514Q778 513 778 512T778 508Q777 464 750 430T685 369Q677 364 669 359T653 349Q641 342 629 336T606 324Q635 298 652 264T670 189Q670 140 644 98T570 23Q524
-8 469 -23T356 -38Q353 -38 350 -38T344 -38Q287 -36 233 -19T135 32Q90 67 64 114T37 215Q37 276 69 325T150 407Q133 427 125 450T117 497Q117 507 118 517T123 538Q130 561 143 581T177 618Q199 635 224 645T275 660Q285 662 295 662T316 663Q325 663 333 663T351
661Q376 658 400 651T444 630Q458 620 464 609T471 585Q470 575 466 565T455 547Q446 538 435 532T409 526Q404 526 399 527T389 530Q384 532 379 535T369 544Q362 552 350 556T325 560Q310 560 297 555T275 542V543Q267 535 263 523T258 496Q258 471 275 455T315
431Q332 426 340 415T350 391Q350 389 350 388T350 386Q350 379 349 372T343 358Q336 348 326 341T302 333Q298 333 293 334T283 337Q278 339 273 340T263 342Q262 342 262 342T261 342Q256 343 252 344T243 346Q223 324 213 295T203 236Q203 199 218 165T263 107Q287
88 324 78T413 69Q414 69 414 69T416 69Q457 72 491 102T526 176Q526 207 516 228T471 249Q470 249 470 249T468 249Q453 248 441 237T427 210Q427 187 414 176T383 164Q367 164 354 176T340 211Q342 257 368 285T428 336Q437 342 446 347T464 359Q473 364 481
369T499 378Q510 384 529 393T568 414Q578 420 587 426T606 439Q610 442 615 446T626 457Q632 463 638 471T648 487Q650 491 651 495T652 503Q652 507 651 510T648 516Q645 521 640 523T629 525Q628 525 626 525T623 525Q617 524 611 522T601 516Q594 511 587 509T573
506Q563 506 554 511T539 525Q535 531 533 537T530 551Q531 561 536 570T552 587Q571 600 595 609T643 621Q648 622 653 622T663 622Q689 622 713 613T754 581Q763 569 769 554T777 521V521Z" />
<glyph unicode="&apos;" glyph-name="quotesingle" horiz-adv-x="185" d="M150 558Q149 535 144 512T132 464Q130 454 127 444T122 424Q119 411 107 402T80 393Q66 393 54 402T39 425Q37 435 35 446T29 469Q28 475 27 481T24 493Q20 510 18 527T15 560Q15 588
35 607T83 626Q111 626 130 606T150 558V558Z" />
<glyph unicode="(" glyph-name="parenleft" horiz-adv-x="459" d="M437 587Q435 577 426 569T402 561Q401 561 399 561T394 562Q386 564 378 565T361 567Q304 562 271 502T222 371Q212 323 208 278T203 205Q203 178 207 133T223 39Q238 -31 271 -90T361 -155Q368
-155 374 -155T388 -152Q390 -151 392 -151T397 -151Q411 -151 419 -159T430 -178Q430 -179 430 -180T431 -182Q431 -182 431 -183T431 -185Q431 -186 431 -186T431 -188Q429 -199 423 -208T402 -219Q395 -221 389 -222T376 -224Q370 -224 364 -224T350 -225Q218
-225 139 -126T34 92Q27 121 24 149T21 205Q21 232 24 260T33 317Q59 437 138 537T350 637Q365 637 380 635T410 629Q424 626 431 616T438 595Q438 594 438 593T438 591Q438 590 438 589T437 587V587Z" />
<glyph unicode=")" glyph-name="parenright" horiz-adv-x="459" d="M21 587Q20 589 20 591T20 596Q20 597 20 598T20 600Q21 609 28 617T48 629Q63 633 78 635T108 637Q240 637 319 537T425 317Q431 288 434 260T437 205Q437 178 434 150T424 92Q399 -26 320 -125T108
-225Q101 -225 95 -225T82 -224Q76 -223 70 -222T56 -219Q41 -217 34 -207T27 -184Q27 -183 27 -183T28 -181Q28 -180 28 -180T28 -178Q30 -167 39 -159T62 -151Q64 -151 66 -151T70 -152Q77 -154 83 -154T97 -155Q154 -150 187 -91T235 39Q246 88 250 133T255
205Q255 232 251 277T236 371Q220 442 187 502T97 567Q89 566 81 565T64 562Q62 561 60 561T55 561Q42 561 33 569T21 587V587Z" />
<glyph unicode="*" glyph-name="asterisk" horiz-adv-x="356" d="M338 504Q338 503 338 502T339 499Q340 497 340 496T340 493Q340 492 340 491T340 489Q338 480 332 472T314 460L234 434L284 366Q288 360 290 354T292 343Q291 335 288 328T277 316Q273 313 268
311T257 309Q255 309 253 309T249 310Q244 311 239 315T228 325L178 393L128 325Q124 318 118 315T107 310Q105 309 103 309T99 309Q94 309 89 311T79 316Q72 321 68 328T64 344Q64 349 66 354T72 366L122 434L42 460Q29 465 23 474T16 494Q16 495 16 496T17 499Q17
500 17 501T18 504Q21 515 29 521T51 528Q54 528 57 528T63 526L143 500V584Q143 601 153 610T175 620Q176 620 176 620T178 620Q179 620 179 620T181 620Q193 619 203 610T213 584V500L293 526Q297 527 300 527T306 528Q318 528 326 522T338 504V504Z" />
<glyph unicode="+" glyph-name="plus" horiz-adv-x="500" />
<glyph unicode="," glyph-name="comma" horiz-adv-x="185" d="M176 70Q176 12 155 -31T96 -110Q91 -115 85 -117T73 -120Q67 -120 62 -118T51 -110Q47 -106 45 -101T42 -88Q42 -82 44 -76T53 -65Q62 -57 69 -48T83 -29Q85 -27 85 -25T85 -20Q85 -19 85 -19T85
-17Q84 -14 82 -12T75 -8Q45 -2 27 21T9 74Q9 75 9 76T9 78Q9 79 9 80T9 82Q12 114 35 136T92 158Q127 158 151 133T176 70V70Z" />
<glyph unicode="-" glyph-name="hyphen" horiz-adv-x="306" d="M291 331L266 239Q264 231 257 225T242 215Q240 214 238 214T233 213H85L82 204Q78 190 69 184T49 177Q47 177 45 177T40 178Q30 180 22 189T14 211Q14 213 14 215T15 221L40 313Q42 321 49 327T64
337Q66 338 68 338T73 339H221L224 348Q228 362 237 368T257 375Q259 375 261 375T266 374Q277 372 285 364T292 341Q292 339 292 337T291 331V331Z" />
<glyph unicode="." glyph-name="period" horiz-adv-x="184" d="M176 74Q176 39 152 15T92 -10Q57 -10 32 14T7 74Q7 109 32 133T92 158Q127 158 151 134T176 74V74Z" />
<glyph unicode="/" glyph-name="slash" horiz-adv-x="500" />
<glyph unicode="0" glyph-name="zero" horiz-adv-x="535" d="M510 291Q511 278 511 264T508 237Q498 145 441 69T281 -8Q178 -8 113 69T31 240Q28 252 27 263T25 287Q24 300 24 314T27 341Q37 433 94 510T255 587Q357 587 422 509T504 338Q507 326 508 315T510
291V291ZM363 299Q360 313 353 337T334 386Q317 425 292 457T235 489Q234 489 233 489T232 489Q231 488 230 488T228 488Q199 484 182 446T165 352Q165 335 166 317T172 280Q175 266 182 242T201 193Q218 154 243 122T300 90Q301 90 302 90T304 90Q304 90 305 90T307
90Q336 94 353 132T370 227Q370 244 369 262T363 299V299Z" />
<glyph unicode="1" glyph-name="one" horiz-adv-x="308" d="M290 72Q292 68 293 63T294 53Q294 52 294 51T294 47Q292 37 286 28T266 13Q245 3 216 -1T154 -5Q123 -5 93 -1T43 13Q28 20 22 31T15 54Q15 59 16 63T19 72Q24 83 34 89T57 96Q62 96 67 95T79 91Q80
91 80 91T82 90Q83 90 83 90T85 89V436Q85 443 81 447T69 451H58Q39 450 28 461T15 486Q14 488 14 490T14 495Q14 509 21 520T43 535L175 580Q177 581 178 581T182 582Q184 582 185 582T189 582Q206 582 219 570T232 539V92Q237 94 242 95T252 96Q266 96 275 90T290
72V72Z" />
<glyph unicode="2" glyph-name="two" horiz-adv-x="507" d="M484 130Q484 116 482 100T475 69Q465 34 446 3T403 -49Q399 -52 395 -54T388 -59Q384 -60 380 -61T372 -62Q362 -61 354 -57T340 -46Q335 -41 332 -34T329 -18Q329 -16 329 -14T330 -9Q331 -6 332 -4T334
0Q267 0 200 0T66 0Q47 0 36 13T23 42Q23 43 23 43T23 45Q23 53 25 60T34 73Q39 78 44 83T55 94Q75 114 100 141T153 199Q170 218 187 238T219 280Q229 293 238 306T255 332Q258 337 261 342T268 354Q274 366 279 379T289 406Q291 413 292 420T293 435Q293 446
290 456T278 475Q268 486 254 491T226 496Q224 496 222 496T217 496Q198 494 180 486T148 466Q138 457 129 446T111 422Q105 411 97 405T79 398Q77 397 76 397T72 397Q66 397 61 398T50 403Q41 408 35 418T29 440Q29 446 30 452T36 465Q71 525 133 559T264 594Q282
594 299 592T334 584Q375 572 404 547T447 484Q449 478 450 472T453 458Q454 451 454 445T455 432Q455 362 404 298T291 181Q273 165 255 151T221 123H397Q397 125 397 126T397 129Q396 151 408 163T436 176Q437 176 437 176T439 176Q456 176 469 165T484 130V130Z"
/>
<glyph unicode="3" glyph-name="three" horiz-adv-x="509" d="M471 208Q479 191 482 174T486 140Q485 64 425 7T291 -68Q276 -72 261 -74T229 -78Q221 -78 214 -78T198 -79Q160 -79 123 -72T54 -52Q39 -47 32 -37T23 -16Q23 -15 23 -14T23 -11Q23 -7 24 -4T26
4Q31 15 41 23T65 31Q70 31 75 30T85 27Q108 18 135 13T191 7Q223 7 252 16T303 47Q318 62 325 83T333 128Q332 153 323 176T296 213Q277 228 255 230T211 231Q209 231 207 231T203 230Q197 230 191 230T178 229Q155 228 143 241T130 270Q129 287 140 300T174 315Q179
315 185 316T197 318Q205 319 212 321T226 327Q247 338 263 362T283 413Q284 417 284 421T285 431Q284 451 275 467T245 493Q237 496 229 497T212 499Q210 499 208 499T203 499Q177 496 152 484T108 456Q106 454 103 453T98 450Q93 447 88 446T78 445Q68 445 60
449T45 461Q41 467 38 474T35 489Q35 491 35 493T36 498Q38 505 42 511T54 524Q89 552 133 569T225 591Q232 591 238 591T252 592Q269 592 286 590T320 583Q373 568 407 530T441 442Q441 429 438 415T429 385Q419 361 403 340T367 302Q406 288 432 264T471 208V208Z"
/>
<glyph unicode="4" glyph-name="four" horiz-adv-x="561" d="M535 97Q535 96 535 96T535 94Q536 76 526 61T493 46H458V-61Q458 -77 445 -90T415 -103L354 -104Q338 -103 325 -90T311 -60V46H69Q50 46 38 60T25 90Q25 92 25 94T26 98Q27 102 29 106T33 114L320
524Q322 526 323 528T327 533Q340 552 356 567T396 582Q398 582 399 582T403 581Q405 581 406 581T410 580Q437 574 447 553T458 507Q458 506 458 505T458 503V148H489Q509 148 521 133T535 97V97ZM311 148V359L163 148H311V148Z" />
<glyph unicode="5" glyph-name="five" horiz-adv-x="488" d="M463 526Q462 521 460 516T457 506Q455 501 454 496T450 486Q450 485 450 484T448 481Q445 475 438 469T423 459Q419 458 416 457T409 456Q382 456 355 456T299 456Q271 456 244 456T189 456Q185 445
182 434T175 411Q171 399 168 388T160 365Q194 358 227 351T293 331Q356 309 401 264T446 130Q446 35 372 -24T209 -86Q205 -86 201 -86T193 -86Q154 -86 115 -74T43 -39Q36 -34 31 -28T24 -15Q23 -12 23 -9T22 -3Q22 3 24 9T30 20Q36 30 46 36T66 42Q71 42 75
41T83 37Q88 34 92 32T101 27Q119 19 137 14T177 8Q226 8 259 34T293 113Q293 156 268 179T207 216Q195 220 182 224T156 231Q143 234 130 237T105 243Q98 244 91 245T78 249Q65 253 57 264T47 289Q47 290 47 291T47 293Q47 296 47 299T49 304L132 561Q136 573
145 578T176 583H422Q440 583 452 570T465 539Q465 538 465 536T464 533Q464 531 464 530T463 526V526Z" />
<glyph unicode="6" glyph-name="six" horiz-adv-x="514" d="M490 202Q484 111 412 52T250 -8Q139 -8 79 74T24 260Q28 322 46 376T96 480Q111 503 129 525T167 568Q179 580 191 591T216 613Q226 622 236 630T256 647Q264 654 272 657T289 659Q297 659 304 656T317
648Q323 642 326 635T330 618Q330 610 326 601T313 581Q282 547 257 512T211 436Q207 426 203 415T194 393Q213 403 234 409T276 417Q280 418 284 418T293 418Q384 418 439 355T490 202V202ZM337 215Q336 222 333 230T327 246Q315 271 295 291T248 311Q246 311
243 311T237 310Q212 304 200 282T184 233Q184 228 184 224T183 214Q183 205 184 197T186 182Q188 175 190 167T197 151Q208 126 228 106T275 86Q277 86 280 86T286 87Q311 93 323 115T339 164Q339 169 339 173T340 183Q340 192 340 200T337 215V215Z" />
<glyph unicode="7" glyph-name="seven" horiz-adv-x="532" d="M505 524L273 -77Q270 -84 262 -91T243 -101Q240 -102 237 -102T231 -103Q230 -103 230 -103T228 -103Q227 -102 227 -102T225 -102L163 -92Q147 -88 138 -75T128 -46Q128 -44 128 -42T129 -38Q129
-36 129 -34T131 -30L359 466H112Q111 462 111 459T111 452Q111 429 98 417T68 405Q67 405 67 405T65 405Q50 405 38 416T24 450Q24 464 26 478T32 508Q42 543 61 576T105 630Q113 638 121 640T137 643Q146 643 154 639T168 628Q173 622 176 615T179 600Q179 596
178 592T175 583H465Q483 583 495 569T508 538Q508 536 508 535T507 531Q507 529 507 528T505 524V524Z" />
<glyph unicode="8" glyph-name="eight" horiz-adv-x="503" d="M481 178Q481 100 422 53T291 -4Q280 -6 269 -7T247 -8Q239 -8 231 -8T214 -6Q142 0 83 40T23 163Q23 195 34 220T64 268Q78 283 94 297T130 324Q117 334 105 344T83 367Q65 388 55 413T45 468Q45
538 97 580T214 633Q225 635 235 636T257 637Q265 637 273 637T290 635Q354 628 407 592T461 482Q461 454 451 430T423 386Q413 374 400 363T371 341Q415 310 448 272T481 178V178ZM337 157Q337 179 322 197T289 228Q286 230 284 231T278 235L224 267Q208 256 196
246T175 226Q168 218 164 208T159 184Q159 183 159 182T159 178Q161 142 185 112T248 82Q253 82 258 83T270 85Q295 92 316 111T337 157V157ZM325 473Q325 505 307 525T256 546Q231 546 213 530T195 487Q195 471 206 458T231 434Q236 430 241 426T250 419Q253 417
256 415T263 410Q266 407 270 405T278 400Q289 409 297 417T312 434Q318 442 321 451T325 473V473Z" />
<glyph unicode="9" glyph-name="nine" horiz-adv-x="514" d="M490 347Q486 285 468 231T417 127Q402 104 385 82T347 39Q335 27 323 16T297 -5Q288 -14 278 -22T257 -39Q252 -44 247 -46T235 -50Q232 -51 230 -51T224 -51Q217 -51 210 -48T196 -40Q190 -34 187
-27T184 -10Q184 -2 188 7T201 26Q232 60 257 95T302 171Q307 182 311 192T320 214Q301 204 280 198T238 190Q234 189 230 189T221 189Q130 189 75 252T24 405Q29 497 102 556T263 616Q375 616 435 534T490 347V347ZM327 425Q325 432 323 440T316 457Q305 481 285
501T238 521Q236 521 233 521T227 520Q203 514 191 492T174 445Q174 439 174 434T173 422Q173 414 174 407T176 392Q178 385 180 378T186 362Q198 337 217 317T263 296Q267 296 270 296T276 297Q301 303 313 325T329 374Q329 379 329 383T330 393Q330 402 330 410T327
425V425Z" />
<glyph unicode=":" glyph-name="colon" horiz-adv-x="184" d="M176 74Q176 39 152 15T92 -10Q57 -10 32 14T7 74Q7 109 32 133T92 158Q127 158 151 134T176 74V74ZM176 304Q176 269 152 244T92 219Q57 219 32 244T7 304Q7 339 32 363T92 388Q127 388 151 364T176
304V304Z" />
<glyph unicode=";" glyph-name="semicolon" horiz-adv-x="184" d="M176 70Q176 12 155 -31T96 -110Q91 -115 85 -117T73 -120Q67 -120 62 -118T51 -110Q47 -106 45 -101T42 -88Q42 -82 44 -76T53 -65Q62 -57 69 -48T83 -29Q85 -27 85 -25T85 -20Q85 -19 85 -19T85
-17Q84 -14 82 -12T75 -8Q45 -2 27 21T9 74Q9 75 9 76T9 78Q9 79 9 80T9 82Q12 114 35 136T92 158Q127 158 151 133T176 70V70ZM176 304Q176 269 152 244T92 219Q57 219 32 244T7 304Q7 339 32 363T92 388Q127 388 151 364T176 304V304Z" />
<glyph unicode="&lt;" glyph-name="less" horiz-adv-x="500" />
<glyph unicode="=" glyph-name="equal" horiz-adv-x="500" />
<glyph unicode="&gt;" glyph-name="greater" horiz-adv-x="500" />
<glyph unicode="?" glyph-name="question" horiz-adv-x="447" d="M303 74Q303 39 279 15T219 -10Q184 -10 159 14T134 74Q134 109 159 133T219 158Q254 158 278 134T303 74V74ZM427 429Q427 381 401 351T333 299Q329 297 325 295T316 289Q307 284 299 278T282
264Q272 255 265 244T256 218Q255 205 246 195T222 185Q209 185 202 192T188 209Q182 219 180 230T177 252Q177 258 177 263T179 274Q181 285 185 296T193 318Q196 326 200 334T207 349Q216 364 223 375T234 392Q241 403 244 415T247 440Q247 445 247 450T244 461Q240
480 227 496T193 512Q172 512 160 496T143 460Q141 454 141 448T140 437Q140 412 123 395T80 377Q58 377 39 392T20 432Q20 499 71 541T184 593Q194 595 204 596T224 597Q233 597 241 597T259 594Q322 585 374 542T427 429V429Z" />
<glyph unicode="@" glyph-name="at" horiz-adv-x="804" d="M747 346Q747 331 745 315T739 283Q721 210 670 150T540 90Q514 90 491 102T454 138Q432 119 404 107T347 95Q339 96 331 97T314 100Q270 112 249 150T227 231Q227 282 250 330T309 412Q334 435 365 450T429
465Q440 465 451 464T472 458Q480 455 488 451T503 442Q506 445 510 447T518 451Q521 453 525 454T532 455Q543 455 554 455T577 455Q594 455 605 443T616 414Q616 411 616 409T615 404Q607 377 600 351T584 298Q576 271 569 245T553 192Q553 191 553 191T553 190Q553
184 556 180T565 175Q565 175 565 175T566 175Q566 175 566 175T566 175Q599 185 622 217T656 286Q661 301 663 316T666 346Q667 389 652 425T607 488Q577 516 538 529T457 544Q455 544 453 544T447 544Q337 544 259 469T172 284Q165 180 233 105T407 28Q468 28
526 44T633 96Q640 101 646 103T660 105Q670 105 678 101T691 89Q695 84 697 78T699 65Q699 56 695 48T680 31Q619 -13 549 -32T404 -51Q330 -51 267 -25T157 48Q111 95 87 156T67 288Q78 434 189 529T443 624Q446 624 448 624T454 624Q510 623 564 605T661 548Q703
510 725 458T747 346V346ZM462 326Q462 328 462 329T463 333Q464 336 464 340T465 348Q464 359 461 367T447 380Q447 380 447 380T445 381Q445 381 445 381T443 381Q439 380 433 376T421 364Q419 362 417 360T413 356Q413 355 413 355T411 353Q394 334 382 309T364
256Q363 248 362 241T361 225Q361 222 361 218T363 210Q365 202 368 196T378 189Q378 189 378 189T380 189Q381 189 381 189T382 190Q405 196 419 214T441 255Q447 272 452 289T462 326V326Z" />
<glyph unicode="A" glyph-name="A" horiz-adv-x="714" d="M700 47Q700 31 689 19T654 4Q636 2 619 2T584 0Q551 0 519 1T452 3Q434 3 417 4T380 5Q357 6 346 18T335 47Q334 64 343 77T370 91Q376 92 382 92T394 92Q396 92 398 92T402 92L381 198H239Q228 160 221
132T215 92Q219 92 222 92T230 92Q231 92 232 92T234 92Q237 92 239 92T244 92Q263 91 272 78T282 48Q282 32 273 20T245 5Q217 2 190 1T133 0Q109 0 85 1T38 5Q22 7 13 20T4 49Q4 65 15 78T50 91H71Q82 91 92 99T108 117Q109 119 109 120T111 124Q129 170 146
214T179 303Q196 350 211 398T241 497Q242 499 242 500T242 502Q242 509 237 512T227 518Q225 518 224 518T221 519Q217 520 211 520T199 520Q196 521 193 521T187 521Q172 523 164 534T156 560Q156 561 156 562T157 564Q157 564 157 565T157 567Q159 584 170 596T203
607Q210 607 217 607T231 605Q249 604 266 603T302 602Q311 602 319 602T334 603Q348 604 360 605T381 605Q417 604 427 596T443 574Q453 545 462 515T482 455Q489 433 495 411T509 367Q529 305 549 244T593 124Q594 122 594 121T596 117Q602 108 612 100T633 91Q636
91 638 91T643 91Q644 91 645 91T648 91Q651 91 654 91T662 91Q681 90 691 77T700 47V47ZM364 284L326 479Q321 463 306 414T272 306Q270 301 269 296T265 284H364V284Z" />
<glyph unicode="B" glyph-name="B" horiz-adv-x="656" d="M570 312Q590 288 601 260T616 203Q616 200 616 197T616 190Q616 150 598 112T540 43Q500 10 455 -1T361 -13Q336 -13 311 -11T260 -4Q236 0 212 1T164 2Q155 2 146 2T127 1Q108 0 90 -1T53 -3Q28 -5 18
7T7 43Q7 75 23 80T62 85Q64 85 66 85T71 85Q74 85 77 86T82 89Q85 93 87 98T90 109Q95 156 98 204T101 302Q101 351 99 399T90 495Q89 508 84 513T70 519Q66 520 60 520T48 520Q45 521 42 521T36 521Q21 523 13 534T5 560Q5 561 5 562T6 564Q6 564 6 565T6 567Q8
584 19 596T52 607Q81 605 110 604T170 602Q199 602 228 603T287 606Q299 607 311 607T335 607Q368 605 400 596T461 570Q495 550 513 520T532 457Q531 435 522 414T492 372Q515 361 535 346T570 312V312ZM408 272Q390 292 369 298T325 304Q313 304 301 303T277
300Q271 300 265 300T253 298Q253 279 254 257T256 210Q257 180 259 152T264 103Q281 85 299 78T335 70Q349 70 362 75T388 89Q411 106 425 134T439 193Q439 214 432 234T408 272V272ZM356 490Q348 498 338 502T317 508Q314 508 312 508T308 508Q296 508 285 505T264
494Q263 484 262 470T260 440Q259 427 259 415T257 392H311Q337 392 356 410T375 452Q375 462 371 471T356 490V490Z" />
<glyph unicode="C" glyph-name="C" horiz-adv-x="630" d="M577 516Q576 474 560 436T517 366Q511 358 504 355T489 351Q482 351 476 354T464 362Q459 368 456 375T453 389Q453 390 453 391T454 394Q455 398 457 402T464 409Q467 416 468 423T469 438Q469 439 469
440T469 443Q468 466 455 487T420 518Q410 522 401 523T380 525Q364 525 348 521T318 509Q264 481 239 424T215 301Q215 299 215 297T215 292Q216 243 230 197T269 117Q292 87 324 69T399 48Q427 47 451 55T499 78Q504 81 509 82T520 84Q529 84 536 80T548 67Q550
63 551 58T553 48Q553 40 549 32T534 18Q491 -6 442 -19T342 -35Q338 -35 334 -35T324 -35Q188 -33 95 66T4 300Q6 434 102 531T334 626Q396 625 455 604T564 544Q565 543 566 542T569 538Q570 536 571 534T573 529Q575 525 576 522T577 516V516Z" />
<glyph unicode="D" glyph-name="D" horiz-adv-x="657" d="M551 81Q517 36 470 11T370 -14Q347 -14 324 -12T278 -5Q277 -5 276 -5T272 -4Q251 -1 230 1T186 4Q151 6 117 5T48 2Q31 1 21 12T9 39Q9 41 9 42T9 45Q9 59 16 70T40 84Q47 85 53 85T64 85Q66 85 67 85T71
85Q82 86 88 90T96 109Q101 158 104 208T107 308Q107 355 104 402T96 495Q94 514 85 517T63 520Q51 519 40 520T19 533Q14 540 11 547T8 562Q8 567 9 572T12 581Q17 592 28 599T52 606Q54 606 55 606T58 606Q90 602 122 600T186 597Q210 597 234 599T281 604Q303
606 325 608T369 610Q418 610 463 592T551 518Q586 472 603 415T620 299Q620 240 603 184T551 81V81ZM405 457Q390 485 371 498T330 512Q314 512 298 504T265 480Q261 432 258 384T255 286Q255 242 257 199T265 112Q267 93 282 84T315 73Q341 72 363 86T401 124Q424
158 434 201T444 290Q444 336 434 379T405 457V457Z" />
<glyph unicode="E" glyph-name="E" horiz-adv-x="581" d="M540 159Q540 121 535 83T520 8Q517 -2 506 -10T483 -21Q482 -21 481 -21T477 -21Q477 -21 477 -21T475 -21Q474 -21 474 -21T473 -21Q418 -12 365 -9T259 -7Q236 -7 213 -8T166 -9Q136 -10 106 -11T45
-12Q44 -12 44 -12T42 -12Q28 -12 16 -6T4 29Q4 61 19 66T57 70Q60 70 62 70T67 70Q74 70 78 75T85 87Q86 89 86 90T87 94Q91 131 93 168T97 244Q98 256 98 268T98 294Q98 341 95 388T87 481Q85 496 81 499T69 503Q68 503 68 503T66 503Q63 503 60 503T51 505Q28
506 16 512T4 547Q4 579 20 584T58 589Q61 589 63 589T67 589Q90 589 112 588T157 586Q184 585 210 585T264 584Q312 585 359 587T450 595Q450 595 450 595T452 595Q453 595 453 595T454 595Q456 595 458 595T462 594Q473 591 482 582T495 562Q498 549 499 537T500
512Q500 509 500 506T500 499Q499 487 498 474T495 447Q495 447 495 447T495 446Q493 432 488 421T454 410Q421 410 416 426T412 464Q412 467 412 469T412 475Q412 488 403 493T382 501Q380 501 378 501T374 501Q370 501 366 501T359 500Q356 499 355 499T353 498Q334
497 316 497T279 494Q271 494 264 489T257 475Q257 438 257 402T257 327H313Q313 331 313 335T312 343Q312 347 312 351T310 359Q310 361 310 362T310 366Q310 385 321 396T346 408Q348 408 349 408T353 408Q367 408 378 399T393 369Q395 348 396 327T398 285Q398
263 397 241T392 196Q388 176 376 167T350 158Q349 158 348 158T344 158Q331 160 320 170T308 200Q308 201 308 202T309 204Q309 204 309 205T309 207Q311 215 311 224T313 244H257Q257 208 257 172T257 100Q257 92 264 87T279 81Q302 80 325 79T372 76Q407 75
432 101T456 162Q456 178 461 191T497 204Q525 205 532 194T540 159V159Z" />
<glyph unicode="F" glyph-name="F" horiz-adv-x="553" d="M502 459Q499 437 485 428T454 419Q438 420 427 432T415 467V487Q415 498 407 504T388 510L284 505Q283 505 281 505T277 504Q276 503 275 503T272 502Q270 501 269 500T269 499Q270 499 270 499T270 498Q270
497 269 496T267 494Q267 494 267 494T266 492Q265 491 265 490T264 488V341H317Q317 344 317 348T316 356Q315 360 315 364T314 371Q314 372 314 373T314 375Q313 376 313 377T313 379Q314 398 325 409T351 422Q353 422 354 422T357 422Q371 422 383 412T399 382Q402
360 403 339T405 294Q405 272 404 251T398 208Q395 188 384 178T358 168Q358 168 357 168T355 168Q354 168 353 168T349 168Q335 170 324 181T312 211Q312 213 312 215T313 220Q314 228 314 236T316 254H264V99Q264 92 269 87T281 81Q284 81 286 81T292 82Q295
82 297 82T303 83Q305 83 306 83T309 83Q329 83 340 71T353 43Q353 42 353 42T353 40Q353 25 342 13T305 -3Q295 -4 279 -5T245 -6Q228 -7 212 -7T185 -7Q169 -7 152 -7T119 -5Q110 -5 102 -5T85 -4Q77 -3 69 -3T52 -2Q28 -1 17 12T5 43Q6 60 18 72T52 84H72Q78
84 82 89T88 99Q89 101 89 102T90 106Q95 151 97 201T100 303Q100 353 98 401T90 493Q89 507 84 510T69 514Q68 515 67 515T65 515Q63 515 61 515T58 516Q56 516 55 516T51 516Q28 516 16 529T4 559Q4 576 16 589T51 602Q74 602 97 602T144 600Q175 599 206 598T269
598Q317 599 364 601T454 609Q457 609 459 609T464 608Q477 606 488 597T502 575Q504 568 504 562T506 549Q507 542 507 536T507 522Q507 506 506 491T502 459V459Z" />
<glyph unicode="G" glyph-name="G" horiz-adv-x="746" d="M710 223Q707 211 696 202T667 193Q664 193 661 193T654 195Q650 196 646 197T637 199Q633 200 629 201T620 203V104Q620 102 619 98T615 90Q615 88 614 86T611 82Q610 80 609 78T606 75Q561 35 502 13T379
-15Q369 -16 359 -16T339 -17Q200 -17 102 76T4 298Q4 426 102 520T339 614Q403 614 463 595T575 539Q576 538 577 537T580 534Q582 531 584 528T587 522Q589 518 590 514T592 507Q591 488 587 469T575 431Q568 412 558 395T533 361Q528 355 522 352T509 346Q506
345 503 345T497 344Q490 344 483 346T470 353Q463 358 459 366T454 383Q454 390 456 397T465 411Q470 418 472 425T474 442Q474 470 450 488T396 514Q386 516 377 517T358 519Q286 519 251 471T204 364Q201 349 200 335T199 307Q199 289 202 266T213 220Q227 172
257 132T339 92Q366 92 387 105T425 138V205Q420 204 416 204T406 202Q401 201 397 200T387 198Q386 198 384 198T381 197Q379 197 378 197T374 197Q357 197 346 206T332 227Q332 228 332 229T331 232Q331 233 331 234T331 237Q331 250 339 261T367 277Q405 285
444 289T522 293Q561 292 600 288T676 273Q695 269 703 258T712 233Q712 232 712 231T711 228Q711 227 711 226T710 223V223Z" />
<glyph unicode="H" glyph-name="H" horiz-adv-x="776" d="M736 45Q736 44 736 44T736 42Q736 26 726 13T693 -2Q657 -5 624 -6T559 -8Q527 -8 494 -7T425 -3Q403 -1 393 11T382 39Q382 41 382 41T382 43Q383 60 395 72T428 83Q431 83 432 83T434 83Q434 83 434
83T434 83Q435 83 436 83T442 83Q448 83 452 88T458 98Q458 100 459 102T460 106Q465 150 467 198T470 296Q470 297 470 298T470 300Q470 300 470 301T470 303H264Q264 302 264 301T264 300Q264 299 264 298T264 296Q264 247 267 201T276 107Q277 98 282 92T296
84Q298 84 299 84T301 84Q301 84 301 84T301 84Q301 84 301 84T302 84Q302 84 303 84T306 84Q308 84 309 84T312 84Q332 84 343 72T356 45Q356 44 356 44T356 42Q357 26 346 13T313 -2Q277 -5 244 -6T179 -8Q147 -8 114 -7T45 -3Q23 -1 13 11T2 39Q2 41 2 41T2
43Q3 60 15 72T48 83Q52 83 56 83T64 83Q65 83 66 83T69 83Q71 83 74 83T79 83Q85 83 89 88T95 98Q96 100 96 102T97 106Q102 150 104 198T107 296Q107 346 105 394T97 486Q97 488 97 489T95 493Q94 498 90 503T79 508Q75 508 71 508T64 508Q60 508 56 508T48 509Q27
508 15 520T2 549Q2 550 2 551T2 555Q2 569 13 581T45 595Q81 598 114 599T179 601Q211 600 244 599T313 594Q334 593 344 581T356 554Q356 553 356 553T356 551Q356 550 356 549T356 547Q355 532 344 520T312 508Q311 508 310 508T306 508Q305 508 304 508T302
508Q302 508 302 508T301 508Q301 508 301 508T296 507Q287 507 282 501T276 485Q274 466 272 446T268 405H467Q466 426 464 446T460 486Q460 488 460 489T458 493Q456 498 452 503T442 508Q438 508 437 508T435 508Q434 508 433 508T428 509Q407 508 395 520T382
549Q382 550 382 551T382 555Q382 569 393 581T425 595Q461 598 494 599T559 601Q591 600 624 599T693 594Q715 593 725 580T736 550Q736 549 736 549T736 547Q735 532 724 520T692 508Q691 508 690 508T686 508Q684 508 682 508T677 508Q673 508 668 508T658 507Q649
507 644 501T638 485Q634 439 631 392T627 296Q627 247 630 201T638 107Q639 98 644 92T658 84Q661 84 663 84T667 84Q669 84 670 84T672 84Q675 84 678 84T686 84Q688 84 689 84T692 84Q712 84 723 72T736 45V45Z" />
<glyph unicode="I" glyph-name="I" horiz-adv-x="409" d="M375 45Q375 44 375 44T375 42Q376 26 365 13T332 -2Q261 -8 190 -8T47 -3Q25 -1 15 11T4 39Q4 39 4 39T4 41Q4 42 4 42T4 43Q5 60 17 72T50 83Q54 83 58 83T66 83Q67 83 68 83T71 83Q73 83 76 83T81 83Q87
83 91 88T97 98Q98 100 98 102T99 106Q104 150 106 198T109 296Q109 346 107 394T99 486Q99 488 99 489T97 493Q96 498 92 503T81 508Q77 508 73 508T66 508Q62 508 58 508T50 509Q29 508 17 520T4 549Q4 550 4 551T4 555Q4 569 14 581T47 595Q118 601 189 601T332
594Q353 593 363 581T375 554Q375 553 375 553T375 551Q375 550 375 549T375 547Q374 532 363 520T331 508Q330 508 329 508T325 508Q323 508 321 508T316 508Q312 508 308 508T298 507Q288 507 284 501T277 485Q273 439 270 392T266 296Q266 247 269 201T277 107Q279
98 283 92T298 84Q300 84 302 84T307 84Q311 84 315 84T325 84Q327 84 328 84T331 84Q351 84 362 72T375 45V45Z" />
<glyph unicode="J" glyph-name="J" horiz-adv-x="521" d="M486 559Q486 543 474 530T439 517H420Q412 517 407 511T402 497Q399 452 399 390T402 263Q402 231 403 200T406 138Q406 131 406 124T407 109Q408 86 408 65T409 25Q411 -18 374 -49T292 -97Q272 -105
253 -110T218 -118Q207 -120 195 -121T168 -122Q159 -122 150 -122T131 -120Q85 -115 47 -94T2 -28Q1 -25 1 -22T1 -16Q1 20 28 46T89 89Q99 94 109 98T128 105Q132 107 135 107T143 108Q156 107 166 100T181 81Q183 77 184 73T184 63Q184 52 179 42T162 26Q161
26 160 25T158 24Q153 21 149 17T144 6Q144 -1 150 -5T163 -12Q165 -13 168 -13T173 -14Q174 -14 175 -14T177 -14Q183 -13 189 -9T198 1Q213 39 219 103T227 236Q227 279 227 321T225 398Q225 401 225 403T225 408Q224 440 224 464T224 503Q224 509 220 512T210
518Q209 518 208 518T206 518Q201 518 195 518T183 518Q162 517 151 530T139 559Q138 576 147 589T176 605Q209 608 242 609T308 609Q341 609 373 608T439 604Q464 603 475 590T486 559V559Z" />
<glyph unicode="K" glyph-name="K" horiz-adv-x="776" d="M739 121Q729 96 715 75T681 33Q667 19 652 7T621 -16Q617 -19 613 -21T605 -27Q595 -33 585 -37T563 -42Q560 -43 557 -43T549 -43Q547 -43 545 -43T541 -43Q539 -43 537 -43T533 -42Q515 -40 499 -31T471
-4L296 232L258 182Q260 163 261 144T265 107Q265 105 265 104T266 100Q268 95 272 90T283 85Q285 85 286 85T290 85Q291 85 292 85T294 85Q297 85 299 85T305 85Q326 86 337 74T350 44Q350 43 350 42T350 38Q349 24 339 12T307 -1Q286 -3 265 -4T221 -6Q210 -6
200 -6T178 -6Q146 -6 114 -4T49 0Q25 0 14 14T3 44Q3 61 15 73T49 85H69Q76 85 80 90T86 102Q86 104 86 105T87 108Q92 148 94 193T97 285Q97 290 97 294T97 304Q97 354 95 402T87 494Q87 495 87 496T86 500Q84 506 80 511T69 517Q64 517 58 517T46 517Q25 516
14 529T2 558Q1 575 10 588T39 603Q71 606 103 607T169 609Q186 609 202 609T236 608Q252 607 269 606T302 603Q326 603 337 590T349 561Q349 560 349 560T349 558Q349 541 337 528T302 516H283Q276 516 272 511T266 501Q266 499 266 498T265 494Q261 454 258 411T255
322L400 517Q399 517 399 517T398 517Q397 517 397 517T395 517Q379 517 369 528T356 555Q355 572 364 586T397 603Q408 605 418 606T440 608Q451 608 461 608T483 609Q506 609 528 608T573 602Q593 599 603 587T613 559Q613 558 613 557T613 553Q611 539 601 528T570
516Q568 516 566 516T561 517Q555 518 549 518T537 519Q530 520 524 520T512 521L410 385Q416 378 444 339T505 255Q541 206 571 165T602 124Q605 120 609 119T618 117Q619 117 620 117T622 117Q630 118 637 122T648 132Q651 137 653 142T658 152Q663 167 673 174T694
183Q695 183 696 183T699 183Q704 183 707 183T715 180Q726 176 734 165T743 140Q743 136 742 131T739 121V121Z" />
<glyph unicode="L" glyph-name="L" horiz-adv-x="608" d="M554 185Q555 169 555 153T553 119Q551 94 546 69T535 21Q531 9 520 0T495 -10Q494 -10 493 -10T491 -10Q491 -10 491 -10T489 -10Q488 -9 488 -9T486 -9Q443 -2 396 1T300 6Q247 8 195 7T96 0Q87 0 78
0T58 0Q36 0 25 12T12 39Q12 40 12 40T12 42Q12 59 24 72T58 86H80Q87 86 91 91T97 104Q98 105 98 106T98 108Q103 153 105 203T108 305Q108 355 106 403T98 494Q98 495 98 496T97 500Q95 506 91 511T80 517Q76 517 72 517T65 517Q61 517 57 517T49 517Q28 516
16 529T3 558Q3 559 3 560T3 564Q3 578 14 590T46 604Q117 609 188 609T332 603Q352 602 362 590T374 563Q374 562 374 562T374 560Q374 559 374 558T374 556Q373 540 362 529T330 517Q329 517 328 517T324 517Q319 517 315 517T306 517Q304 517 302 517T297 516Q288
516 283 509T277 494Q272 448 269 401T265 306Q264 258 266 211T272 118Q273 109 278 103T292 96L385 91Q402 90 417 97T444 116Q455 127 461 141T468 172Q468 198 481 209T510 222Q511 222 511 222T513 222Q528 222 540 212T554 185V185Z" />
<glyph unicode="M" glyph-name="M" horiz-adv-x="936" d="M900 47Q899 31 888 19T853 4Q840 3 827 2T800 1Q763 0 727 1T651 3Q634 3 616 4T580 5Q557 6 546 18T534 47Q534 64 543 77T569 91Q573 92 577 92T585 92Q587 92 589 92T593 92Q595 92 597 92T601 92L555
277L453 29Q448 17 438 10T415 2Q414 2 413 2T411 2Q401 2 391 7T376 23L259 266Q255 254 250 238T239 204Q237 198 235 192T231 180Q224 155 219 132T214 92Q218 92 221 92T229 92Q230 92 231 92T233 92Q236 92 238 92T243 92Q262 91 271 78T281 48Q281 32 272
20T244 5Q216 2 189 1T132 0Q108 0 84 1T37 5Q21 7 12 20T3 49Q3 65 14 78T49 91H70Q81 91 91 99T107 117Q108 119 108 120T110 124Q143 210 171 298T228 474Q228 477 228 480T227 486Q227 488 227 489T226 493Q224 498 220 503T209 508Q205 508 198 508T182 508Q174
508 167 508T156 509Q135 508 124 520T110 549Q110 550 110 551T110 555Q111 569 121 581T153 595Q173 597 193 598T235 601Q255 602 275 602T316 600Q323 599 327 594T336 582Q337 581 337 580T339 576L460 304L552 556Q560 580 579 591T626 600Q655 599 684 598T743
595Q764 594 774 582T786 555Q786 553 786 552T786 549Q785 533 773 521T739 509Q735 509 728 509T713 509Q705 508 698 508T687 508Q682 508 678 503T673 490Q673 489 673 489T674 488Q674 487 674 487T674 485Q689 429 705 376T739 271Q751 234 764 198T792 124Q793
122 793 121T795 117Q801 108 811 100T832 91Q835 91 837 91T842 91Q847 91 852 91T861 91Q880 90 890 77T900 47V47Z" />
<glyph unicode="N" glyph-name="N" horiz-adv-x="737" d="M705 38Q705 37 705 36T705 32Q704 18 694 6T662 -8Q613 -12 582 -12T522 0Q520 1 518 2T513 4Q496 14 478 31T438 74L201 360Q200 344 200 328T199 295Q199 247 202 200T211 106Q212 98 216 92T231 84Q234
83 235 83T238 83Q238 83 238 83T239 83Q239 83 239 83T241 84Q242 84 243 84T245 84Q268 86 281 74T295 44Q295 43 295 43T295 41Q296 25 285 12T252 -2Q216 -5 193 -6T149 -8Q128 -8 105 -7T45 -3Q23 -2 13 11T2 40Q2 41 2 41T2 43Q4 59 15 72T48 83Q52 83 54
83T58 83Q59 83 60 83T66 83Q73 83 77 88T83 100Q83 102 83 103T84 106Q89 150 92 198T95 295Q95 345 92 393T84 485Q84 486 84 487T83 491Q81 497 77 502T66 508Q62 508 61 508T58 508Q56 508 54 508T48 508Q27 507 16 519T2 548Q2 549 2 549T2 551Q2 567 12 580T45
595Q81 598 101 599T140 600Q158 600 178 599T235 594Q250 592 261 584T281 565Q285 561 288 557T295 548L504 301Q504 349 502 396T494 485Q494 486 494 487T493 491Q491 497 487 502T476 508Q472 508 471 508T467 508Q466 508 464 508T458 508Q437 507 425 519T412
548Q412 549 412 549T412 551Q411 567 422 580T455 595Q491 598 514 599T559 600Q580 600 603 599T662 594Q683 592 693 580T705 553Q705 551 705 550T705 547Q704 531 691 519T655 507Q653 507 652 507T649 507Q649 507 649 507T648 507Q647 507 646 507T640 507Q631
506 626 500T620 485Q616 439 613 392T609 295Q609 275 609 255T611 213Q613 184 615 156T620 100Q621 92 626 86T640 78Q644 78 645 78T648 78Q648 78 648 78T649 78Q650 78 651 78T655 78Q678 80 691 68T705 38V38Z" />
<glyph unicode="O" glyph-name="O" horiz-adv-x="720" d="M671 356Q672 350 673 344T675 330Q675 323 675 317T676 304Q675 192 598 101T395 -12Q379 -15 364 -16T333 -17Q213 -17 121 55T9 240Q8 246 7 252T5 266Q5 273 5 279T4 292Q5 404 83 495T285 609Q301
612 316 613T347 614Q467 614 559 542T671 356V356ZM478 331Q476 345 472 360T461 390Q442 438 407 477T321 517Q317 517 312 517T302 515Q251 506 227 463T197 369Q196 360 196 351T195 333Q195 320 196 307T199 282Q201 268 206 252T217 220Q236 172 271 133T357
93Q362 93 366 93T376 95Q426 104 450 146T480 239Q481 249 481 259T482 279Q482 293 481 306T478 331V331Z" />
<glyph unicode="P" glyph-name="P" horiz-adv-x="643" d="M589 402Q589 352 563 310T495 241Q494 240 493 240T490 238Q471 227 448 216T399 199Q385 195 371 193T343 190Q339 190 336 190T328 191Q309 193 299 202T286 224Q286 225 286 226T286 228Q285 228 285
229T285 231Q285 242 291 251T311 267Q347 283 363 316T380 387Q380 388 380 389T380 392Q380 401 378 415T372 444Q366 467 355 486T324 505Q292 505 280 444T267 308Q266 298 266 288T266 267Q266 241 267 215T270 162Q271 146 271 130T273 98Q273 91 277 86T288
80Q289 80 289 80T291 80Q291 80 291 80T293 80Q295 80 298 80T304 81Q327 83 339 71T353 41Q353 40 353 39T353 35Q353 21 342 9T310 -5Q279 -7 248 -8T185 -10Q163 -10 141 -9T97 -6Q86 -6 75 -6T52 -4Q28 -3 17 10T5 40Q6 57 18 69T52 82H72Q78 82 82 87T88
97Q89 99 89 100T90 104Q95 149 97 199T100 301Q100 351 98 399T90 491Q89 504 84 507T69 511Q68 511 67 511T63 512Q60 513 57 513T51 513Q28 513 16 527T4 557Q4 558 4 558T4 560Q5 575 17 587T51 600Q74 600 97 599T143 596Q163 595 182 594T221 593Q240 593
259 593T297 594Q299 594 301 594T305 594Q322 595 339 595T373 596Q456 596 522 543T589 402V402Z" />
<glyph unicode="Q" glyph-name="Q" horiz-adv-x="738" d="M669 353Q670 347 671 341T673 327Q673 320 673 314T674 301Q673 189 596 98T393 -15Q376 -18 359 -19T324 -21L311 -41Q316 -40 321 -40T333 -40Q334 -40 336 -40T340 -40Q343 -40 347 -40T354 -40Q371
-40 388 -40T424 -39Q441 -40 458 -41T493 -44Q546 -51 587 -74T645 -149Q647 -156 648 -163T650 -177Q651 -180 651 -184T651 -191Q651 -193 651 -194T651 -198Q650 -225 640 -250T609 -292Q589 -309 564 -318T513 -330Q511 -330 509 -330T503 -330Q494 -330 485
-329T468 -326Q447 -322 438 -310T429 -283Q429 -282 429 -281T429 -278Q429 -277 429 -276T430 -273Q433 -260 443 -250T470 -239Q473 -239 476 -239T482 -241Q500 -243 512 -237T525 -215Q525 -213 525 -210T523 -204Q513 -176 475 -160T389 -136Q382 -135 375
-134T361 -132Q323 -128 288 -126T229 -123Q211 -122 200 -109T188 -78Q188 -72 189 -66T195 -55L229 -7Q144 19 84 83T7 236Q6 242 5 248T3 262Q3 269 3 275T2 288Q3 401 81 492T283 605Q299 608 314 609T346 611Q466 610 557 538T669 353V353ZM476 328Q474 342
470 357T459 387Q440 435 405 474T318 514Q314 514 310 514T300 512Q249 503 225 460T195 366Q194 356 194 347T193 329Q193 316 194 303T197 278Q199 264 203 249T215 217Q234 169 269 130T355 90Q360 90 364 90T374 92Q424 101 448 144T478 237Q479 247 479 256T480
275Q480 289 479 302T476 328V328Z" />
<glyph unicode="R" glyph-name="R" horiz-adv-x="784" d="M737 134Q716 85 677 50T592 -9Q581 -15 569 -18T545 -21Q523 -21 503 -12T468 13L293 208Q288 214 286 221T283 236Q283 237 283 238T283 240Q284 251 290 261T308 276Q345 293 361 328T377 402Q377 410
375 424T369 454Q363 476 351 495T320 514Q289 514 277 453T264 317Q263 307 263 297T263 276Q263 242 264 209T268 142Q269 133 269 125T270 108Q270 101 273 96T284 89Q284 89 284 89T286 89Q287 89 287 89T288 89Q290 89 291 89T294 90Q296 90 297 90T300 90Q302
90 303 90T306 90Q326 90 337 78T350 50Q350 49 350 48T350 44Q350 30 339 18T307 3Q291 2 276 1T245 0Q229 0 214 0T182 0Q157 0 132 0T82 2Q74 3 66 3T49 4Q25 6 14 19T2 50Q3 67 15 79T49 91H69Q75 91 79 96T85 106Q86 108 86 109T87 113Q92 158 94 208T97 310Q97
360 95 408T87 500Q85 514 80 517T64 521Q63 522 62 522T60 522Q59 522 57 522T54 523Q52 523 51 523T47 523Q24 523 13 536T1 566Q1 583 12 596T47 609Q71 609 94 608T142 606Q161 605 180 604T218 603Q237 603 256 603T294 604Q297 604 299 604T305 604Q321 604
337 604T370 605Q452 605 519 552T586 411Q586 361 560 319T492 250Q525 231 555 207T612 154Q615 151 619 149T627 146Q628 145 629 145T632 145Q637 145 640 147T647 153Q648 154 649 155T650 158Q651 158 651 158T651 159Q653 161 654 163T657 168Q663 182 673
188T694 197Q695 197 696 197T699 197Q701 197 703 197T707 196Q709 196 711 196T715 194Q726 189 734 179T741 154Q741 150 740 145T737 134V134Z" />
<glyph unicode="S" glyph-name="S" horiz-adv-x="552" d="M518 180Q518 137 496 99T434 32Q394 4 346 -9T247 -23Q216 -23 186 -18T128 -2Q124 -11 117 -16T102 -22Q101 -22 100 -22T96 -22Q89 -22 82 -19T68 -8Q37 29 20 74T3 166Q3 173 3 180T5 195Q5 202 6
209T10 224Q15 238 24 245T44 252Q46 252 48 252T53 251Q64 249 70 241T79 219Q80 212 82 205T87 191Q103 147 139 111T224 74Q251 74 265 91T280 134Q280 152 270 165T246 188Q234 196 220 203T192 217Q191 217 190 217T189 219Q129 251 80 291T30 414Q30 457
49 494T100 559Q135 588 177 602T264 616Q308 616 350 603T429 565Q429 566 429 567T429 569Q429 571 429 572T429 575Q429 591 438 599T458 610Q459 610 459 610T461 610Q461 610 461 610T463 610Q464 610 464 610T466 610Q477 609 486 601T497 578Q497 575 497
572T498 565Q499 562 499 559T499 552Q498 505 478 462T423 388Q420 385 417 384T411 380Q407 379 404 379T398 378Q391 378 384 381T372 389Q368 394 366 399T364 411Q364 415 365 419T369 429Q370 431 371 433T375 438Q380 445 383 452T386 468Q386 470 386 472T385
476Q383 486 378 496T364 513Q352 524 338 529T308 534Q293 534 279 529T253 513Q243 505 238 494T232 469Q232 450 246 436T282 410Q290 405 299 400T319 390Q330 385 341 379T365 366Q372 362 379 358T394 349Q440 321 479 280T518 180V180Z" />
<glyph unicode="T" glyph-name="T" horiz-adv-x="601" d="M550 414Q549 396 537 387T509 376Q508 376 508 376T506 376Q490 377 477 388T464 423Q464 440 458 455T440 483Q431 492 420 498T394 506Q382 507 375 503T366 483Q362 439 359 390T356 289Q356 240 358
193T366 101Q366 99 366 98T368 94Q369 89 373 84T384 79Q386 79 388 79T393 79Q400 79 406 79T420 78Q435 76 443 63T451 33Q450 18 440 7T409 -7Q378 -12 343 -13T272 -14Q238 -14 205 -12T141 -7Q118 -5 107 6T95 34Q94 50 102 63T126 79Q130 79 135 79T146
79Q147 79 148 79T150 79Q153 79 156 79T162 79Q169 79 173 84T179 96Q179 98 179 99T180 102Q185 146 187 195T190 296Q190 345 188 393T180 484Q180 486 180 487T179 491Q177 496 174 501T165 506Q165 506 165 506T165 506Q164 506 164 506T164 506Q150 506 138
499T116 483Q103 470 97 456T92 423Q92 400 79 389T50 376Q34 376 21 385T5 414Q4 430 4 446T7 480Q9 505 14 530T25 578Q29 590 40 599T65 609Q66 609 67 609T69 609Q70 609 70 609T72 609Q72 609 72 609T74 609Q108 604 142 600T210 594Q227 593 244 593T278
592Q295 592 312 592T346 594Q380 596 414 600T482 609Q484 609 485 609T487 609Q488 609 489 609T491 609Q504 608 515 599T531 578Q537 557 541 535T548 490Q550 471 550 452T550 414V414Z" />
<glyph unicode="U" glyph-name="U" horiz-adv-x="704" d="M673 558Q673 542 662 529T628 515H610Q599 515 592 503T585 474V176Q585 101 513 47T337 -8Q234 -8 161 46T88 176V483Q88 500 80 506T61 514Q58 515 55 515T49 515Q45 515 44 515T43 515Q43 515 42 515T37
515Q18 517 9 530T0 559Q0 576 11 588T45 602Q74 605 100 606T151 607Q186 607 222 606T301 601Q324 601 335 588T347 559Q347 543 338 530T312 515H268V189Q268 150 299 123T374 95Q418 95 449 122T480 189V515Q478 515 475 515T467 515Q465 515 463 515T459 515Q452
515 447 515T437 515Q418 516 409 529T400 558Q400 574 409 587T437 601Q465 604 493 605T550 607Q561 607 572 607T595 606Q606 605 617 605T639 602Q656 600 665 587T673 558V558Z" />
<glyph unicode="V" glyph-name="V" horiz-adv-x="723" d="M696 558Q696 542 685 529T651 515H629Q618 515 608 507T592 489Q591 487 591 486T589 482Q575 447 561 405T532 317Q527 302 522 286T511 253Q492 192 474 133T439 25Q431 0 418 -4T386 -8Q362 -8 347
-8T318 -8Q318 -8 317 -8T315 -8Q282 -7 273 0T259 19Q258 20 258 21T257 24Q247 53 238 83T218 145Q211 169 204 193T188 242Q169 303 149 364T107 482Q106 484 106 485T104 489Q99 498 90 505T71 515Q70 515 69 515T67 515Q60 515 53 515T38 515Q19 517 10 530T0
559Q0 576 11 588T47 602Q62 603 76 604T106 605Q141 606 176 605T248 603Q266 603 283 602T320 601Q343 601 354 588T366 559Q366 543 357 530T330 515Q325 515 320 515T309 515Q306 515 304 515T298 515Q306 473 313 437T328 365Q338 313 349 259T374 135Q379
153 395 205T429 317Q450 387 467 448T485 515Q483 515 481 515T475 515Q474 515 473 515T471 515Q467 515 464 515T456 515Q437 516 428 529T418 558Q418 574 427 587T456 601Q484 604 513 605T571 607Q594 607 617 606T662 602Q679 600 688 587T696 558V558Z"
/>
<glyph unicode="W" glyph-name="W" horiz-adv-x="909" d="M898 558Q897 542 886 529T852 515H831Q820 515 810 507T794 489Q793 487 792 485T790 481Q757 390 728 298T671 113Q664 90 657 67T643 21Q639 7 628 0T604 -8Q603 -8 602 -8T600 -8Q599 -8 598 -8T595
-7Q585 -6 576 -1T562 16L440 296L333 22Q328 9 317 3T292 -4Q291 -4 290 -4T288 -4Q276 -3 266 4T251 25Q240 60 230 94T209 164Q208 168 207 171T205 178Q183 254 160 330T108 481Q107 483 106 485T104 489Q99 498 90 505T72 515Q71 515 70 515T68 515Q66 515
64 515T59 515Q54 515 49 515T39 515Q20 516 10 530T1 560Q1 577 12 589T48 604Q63 605 77 606T107 607Q142 608 177 607T249 605Q267 605 284 604T321 603Q344 603 355 590T366 560Q367 544 358 530T331 514Q326 514 321 514T310 514Q307 514 305 514T299 514L345
323L447 579Q452 591 462 598T485 606Q486 606 487 606T489 606Q500 606 509 601T524 585L642 335Q646 348 651 364T662 399Q664 405 666 411T669 424Q677 449 682 473T687 514Q680 514 673 514T658 514Q639 515 630 529T620 559Q620 575 629 588T657 603Q685 606
714 607T772 609Q795 609 818 608T863 604Q880 602 889 589T898 558V558Z" />
<glyph unicode="X" glyph-name="X" horiz-adv-x="644" d="M620 72Q622 68 623 64T624 54Q624 52 624 51T623 48Q622 38 616 29T596 13Q568 0 533 -6T461 -13Q425 -13 391 -7T328 13Q316 19 310 28T302 47Q302 49 302 50T302 53Q302 57 302 60T304 67Q308 81 318
91T342 100L281 190Q280 191 279 191T276 193L205 88Q208 90 211 91T218 93Q221 93 224 93T230 94Q241 94 251 88T267 69Q268 67 269 65T270 60Q271 57 271 55T271 50Q271 39 265 29T244 10Q224 1 200 -3T151 -9Q148 -9 146 -9T140 -9Q112 -9 86 -5T38 10Q24 18
17 28T10 50Q10 55 11 60T15 69Q20 80 30 87T53 94Q58 94 63 93T75 89Q80 87 85 85T96 81L225 272L71 500Q71 500 71 500T69 499Q68 499 68 499T67 498Q61 495 56 494T45 493Q32 493 22 500T6 518Q4 523 3 527T2 536Q2 538 2 539T3 542Q4 552 10 561T30 577Q59
591 93 597T165 604Q201 604 235 598T298 577Q312 570 318 559T324 536Q324 534 324 532T323 527Q321 513 312 503T289 490L351 400L421 504Q420 503 419 503T415 502Q409 499 403 498T392 496Q379 496 370 503T355 521Q354 523 353 525T352 531Q351 533 351 535T351
540Q351 551 357 562T378 580Q398 589 422 594T471 600Q474 600 476 600T482 600Q510 600 536 595T584 580Q598 573 605 562T612 540Q612 535 611 531T607 521Q603 511 593 504T570 496Q565 496 559 497T547 502Q543 504 539 505T529 508Q529 508 529 508T528 508Q528
507 528 507T528 507L403 322L559 91Q565 94 571 95T583 97Q594 96 604 91T620 72V72Z" />
<glyph unicode="Y" glyph-name="Y" horiz-adv-x="717" d="M696 558Q696 542 685 529T650 515H629Q625 515 621 514T611 510Q603 507 596 501T584 489Q583 487 582 486T580 482L424 181Q426 162 427 144T431 107Q432 98 437 92T451 84Q454 84 456 84T460 84Q463
84 465 84T469 84Q471 84 473 84T478 84Q480 84 481 84T484 84Q504 84 515 72T528 45Q528 44 528 44T528 42Q529 26 518 13T486 -2Q450 -5 415 -6T343 -8Q307 -8 272 -7T200 -3Q178 -1 168 11T157 39Q157 41 157 41T157 43Q158 60 170 72T203 83Q207 83 211 83T219
83Q220 83 221 83T224 83Q226 83 229 83T234 83Q240 83 244 88T250 98Q251 100 251 102T252 106Q254 128 256 150T260 196L107 482Q106 484 106 485T104 489Q99 498 90 505T71 515Q70 515 69 515T67 515Q60 515 53 515T38 515Q19 517 10 530T0 559Q0 576 11 588T46
602Q64 604 81 604T116 606Q149 606 181 605T248 603Q266 603 283 602T320 601Q343 601 354 588T365 559Q366 543 357 530T330 515Q326 515 319 515T304 515Q301 515 298 515T293 515Q288 515 284 515T277 515L374 310L485 515Q483 515 481 515T475 515Q474 515
473 515T471 515Q467 515 464 515T456 515Q437 516 428 529T418 558Q418 574 427 587T455 601Q484 604 513 605T571 607Q594 607 617 606T662 602Q679 600 688 587T696 558V558Z" />
<glyph unicode="Z" glyph-name="Z" horiz-adv-x="599" d="M574 122Q574 121 574 119T575 116Q575 114 575 113T575 109Q575 105 575 101T574 94Q569 52 544 15T484 -44Q477 -49 470 -51T457 -53Q446 -53 437 -47T422 -33Q420 -30 419 -26T416 -17Q415 -15 415
-13T415 -9Q415 -6 415 -4T416 0H47Q28 0 16 14T3 44Q3 46 3 48T4 52Q5 56 7 60T11 68L328 511H159Q158 508 157 506T155 500Q153 494 152 489T151 478Q151 478 151 478T151 476Q151 475 151 475T151 474Q151 473 151 472T151 468Q151 448 140 437T113 423Q112
423 112 423T110 423Q94 422 81 432T65 465Q64 469 64 472T64 479Q64 482 64 484T64 490Q68 532 93 571T154 632Q162 637 168 639T182 641Q193 641 202 635T217 621Q220 616 222 610T224 597H523Q542 597 554 584T566 553Q566 551 566 549T565 545Q564 541 563
537T558 529L245 86H484Q486 94 487 100T488 113Q488 114 488 115T488 117Q487 118 487 119T487 121Q488 141 499 152T526 164Q528 164 529 164T532 164Q546 164 558 154T574 122V122Z" />
<glyph unicode="[" glyph-name="bracketleft" horiz-adv-x="500" />
<glyph unicode="\" glyph-name="backslash" horiz-adv-x="500" />
<glyph unicode="]" glyph-name="bracketright" horiz-adv-x="500" />
<glyph unicode="^" glyph-name="asciicircum" horiz-adv-x="500" />
<glyph unicode="_" glyph-name="underscore" horiz-adv-x="500" d="M0 0H499V-57H0V0V0Z" />
<glyph unicode="`" glyph-name="grave" horiz-adv-x="327" d="M41 768Q52 781 65 787T94 794Q105 794 116 791T136 780Q150 769 163 754T189 722Q199 710 208 699T226 677Q231 672 232 666T235 653Q235 645 233 638T225 624Q219 617 210 612T191 607Q187 607 183
608T174 611Q166 615 157 619T140 627Q137 628 135 629T130 631Q110 640 90 650T53 674Q40 684 34 698T27 727Q27 730 27 732T28 738Q29 746 32 753T41 768V768Z" />
<glyph unicode="a" glyph-name="a" horiz-adv-x="514" d="M489 50Q490 49 490 47T491 42Q491 41 491 40T491 38Q491 36 491 34T490 30Q489 25 487 20T481 9Q468 -6 445 -15T396 -26Q394 -26 392 -26T386 -26Q364 -26 345 -20T313 0Q306 7 301 16T292 36Q268 16
234 1T165 -20Q157 -22 149 -22T133 -23Q111 -23 90 -17T50 2Q27 20 17 43T7 90Q7 94 7 98T8 106Q12 137 27 166T64 217Q98 251 143 270T236 299Q249 302 262 303T287 306Q287 310 287 314T287 323Q287 329 287 336T287 350Q287 364 286 377T279 403Q276 411 271
414T261 417Q260 417 260 417T259 417Q258 416 258 416T256 416Q255 416 254 415T251 414Q244 410 239 404T234 389Q234 387 234 385T234 380Q234 379 234 378T234 375Q232 350 216 329T173 309Q145 310 131 330T114 375Q114 377 114 379T114 383Q114 388 114 393T116
404Q126 446 170 468T265 492Q267 492 269 492T275 492Q310 492 340 483T390 455Q410 436 420 406T431 333Q431 303 431 273T431 212Q431 182 431 152T431 91Q431 89 431 88T432 84Q435 78 439 73T449 67Q450 67 450 67T452 67Q453 67 454 67T456 67Q466 66 475
62T489 50V50ZM287 164V235Q279 234 271 232T254 225Q243 219 232 211T211 193Q196 177 187 159T177 122Q177 115 179 108T185 92Q191 82 199 78T216 73Q219 73 222 73T228 75Q250 81 268 107T287 164V164Z" />
<glyph unicode="b" glyph-name="b" horiz-adv-x="581" d="M491 395Q520 362 533 322T547 240Q547 236 547 232T546 223Q542 174 522 128T464 46Q430 12 384 -5T290 -22Q257 -22 226 -13T166 13Q140 1 113 -6T56 -13Q40 -13 30 -2T18 24Q18 26 18 27T18 30Q18 31
18 32T18 34Q19 46 26 57T46 72Q57 74 63 82T71 101Q71 103 71 104T71 107V526Q71 532 70 536T62 541Q62 541 62 541T62 541Q61 541 61 541T61 541H43Q27 541 16 552T3 577Q3 578 3 579T3 582Q2 583 2 584T2 586Q3 599 9 610T29 626L160 671Q162 671 163 671T167
672Q168 673 170 673T173 673Q190 673 204 661T218 630V441Q243 455 270 462T328 469Q375 469 417 450T491 395V395ZM359 110Q376 132 383 160T391 217Q391 246 383 273T359 323Q346 340 330 350T295 360Q278 360 262 350T232 323Q228 318 225 312T218 299V134Q219
132 220 130T222 126Q224 122 226 118T232 110Q245 93 261 83T295 73Q313 73 329 83T359 110V110Z" />
<glyph unicode="c" glyph-name="c" horiz-adv-x="489" d="M443 78Q424 56 404 36T357 2Q330 -11 302 -18T245 -26Q197 -26 152 -7T71 50Q40 84 23 125T4 209Q4 212 4 215T4 221Q4 270 23 316T81 399Q116 432 161 450T258 469Q314 469 363 449T441 378Q448 367
451 355T455 329Q455 309 445 292T414 264Q406 260 398 258T381 256Q356 257 335 271T303 310Q299 318 298 323T295 334Q295 335 295 336T294 338Q290 359 275 368T241 378Q241 378 240 378T238 378Q234 378 230 378T221 376Q202 372 187 358T161 323Q154 307 150
288T146 248Q146 237 147 225T151 200Q161 151 197 119T278 86Q293 86 308 90T337 103Q348 109 357 117T376 134Q381 141 387 145T400 150Q402 151 404 151T408 151Q416 151 423 148T436 140Q444 133 448 125T453 105Q453 98 451 92T443 78V78Z" />
<glyph unicode="d" glyph-name="d" horiz-adv-x="595" d="M560 100Q565 94 568 87T572 71Q572 62 568 54T555 37Q531 16 499 2T434 -17Q423 -19 413 -20T393 -21Q386 -21 380 -21T366 -19Q352 -18 344 -11T330 4Q305 -8 278 -15T222 -22Q128 -22 66 44T3 204Q3
259 24 311T85 400Q118 431 161 449T251 469Q253 469 255 469T261 469Q280 469 298 466T335 457V526Q335 527 335 527T335 528Q334 533 330 537T316 541H307Q291 541 280 552T266 578Q266 579 266 580T266 582Q265 582 265 583T265 585Q265 586 265 587T265 589Q267
601 274 611T293 625L424 671Q426 671 427 671T431 672Q432 673 434 673T437 673Q454 673 468 661T482 630V90Q484 92 486 93T490 96Q491 97 493 98T497 101Q505 109 513 112T529 114Q538 114 546 111T560 100V100ZM335 153V307Q331 315 327 322T318 336Q304 355
288 364T254 373Q251 373 249 373T243 372Q229 369 216 361T191 336Q175 314 167 286T159 229Q159 200 167 173T191 123Q204 106 220 96T254 86Q272 86 288 96T318 123Q323 130 327 137T335 153V153Z" />
<glyph unicode="e" glyph-name="e" horiz-adv-x="490" d="M457 166Q448 99 401 50T287 -13Q281 -14 276 -15T264 -17Q258 -17 253 -17T241 -18Q156 -18 90 38T9 181Q8 192 7 202T6 222Q6 260 17 294T49 358Q81 403 132 431T239 461Q241 461 242 461T246 461Q275
461 302 453T355 427Q386 405 407 371T436 294Q436 293 436 293T436 292Q436 291 436 291T436 289Q436 288 436 287T436 286Q435 275 427 266T409 254Q342 241 275 228T141 200Q159 171 189 154T252 134Q255 134 257 134T263 134Q276 134 288 136T312 143Q320 146
327 150T343 158Q354 164 364 171T384 185Q389 188 393 191T402 198Q407 202 412 203T422 205Q427 205 431 204T440 200Q448 196 452 188T457 170Q457 170 457 170T457 168Q457 167 457 167T457 166V166ZM313 305Q303 336 275 359T213 382Q185 381 161 364T126
320Q122 310 121 300T119 279Q119 278 119 276T120 273Q120 271 120 270T120 266L313 305V305Z" />
<glyph unicode="f" glyph-name="f" horiz-adv-x="402" d="M377 563Q376 537 356 519T309 501Q290 501 273 512T248 542Q243 556 235 566T210 578Q209 578 208 577T205 574Q203 570 202 566T201 556Q201 552 201 548T203 539Q203 537 203 535T204 531Q205 526 206
521T209 508Q212 499 214 489T217 469H254Q277 469 289 456T301 425Q301 424 301 424T301 422Q300 407 288 395T254 382H220Q220 310 220 238T220 94Q226 97 231 98T242 99Q255 99 264 93T279 77Q282 73 283 67T285 55Q285 45 280 35T261 17Q240 5 214 -1T160 -9Q157
-9 155 -9T149 -9Q119 -9 91 -3T39 17Q28 23 22 31T15 49Q14 51 14 52T14 56Q14 62 15 67T20 77Q26 87 35 93T57 99Q59 99 61 99T65 98Q67 98 69 98T73 96Q73 132 73 167T73 239Q73 275 73 310T73 382H50Q28 382 17 394T4 422Q4 423 4 423T4 425Q4 442 15 455T50
469H73Q73 477 73 485T73 501Q73 543 84 574T115 625Q138 650 168 661T229 673Q233 673 236 673T244 672Q267 670 289 663T330 642Q351 629 365 609T377 563V563Z" />
<glyph unicode="g" glyph-name="g" horiz-adv-x="537" d="M517 -60Q517 -102 496 -138T438 -202Q401 -230 355 -243T260 -257Q257 -257 254 -257T248 -257Q204 -255 161 -241T84 -202Q47 -175 26 -139T5 -59Q5 5 49 51T151 118Q109 147 85 192T61 288Q61 360 107
417T225 488Q224 494 222 502T216 520Q215 524 214 528T212 536Q211 537 211 539T210 542Q204 565 199 585T194 614Q194 626 199 637T211 656Q219 664 230 668T253 673Q277 673 294 656T312 614Q312 605 308 586T297 546Q296 543 295 540T293 533Q291 526 290 520T286
508Q285 505 285 503T284 498Q283 496 283 494T281 490Q358 483 409 424T461 288Q461 237 437 192T371 118Q428 97 472 51T517 -59V-60ZM338 -72Q333 -22 304 17T239 57Q238 57 236 57T233 56Q231 56 230 56T226 55Q204 49 193 26T182 -27Q182 -30 182 -32T182
-37Q182 -39 182 -41T183 -47Q189 -97 219 -137T284 -177Q287 -177 290 -177T296 -175Q317 -168 328 -145T339 -91Q339 -87 339 -82T338 -71V-72ZM317 207Q320 218 321 229T323 254Q323 261 323 267T321 281Q317 312 305 341T275 391Q266 400 257 405T240 410Q239
410 238 410T234 409Q224 406 217 396T204 368Q201 358 200 346T198 322Q198 315 198 307T200 292Q205 261 217 232T247 184Q256 175 265 170T282 165Q284 165 285 165T288 166Q298 169 305 180T317 207V207Z" />
<glyph unicode="h" glyph-name="h" horiz-adv-x="575" d="M547 77Q549 74 550 71T552 63Q553 61 553 60T553 56Q553 45 548 35T528 17Q507 5 481 -1T427 -9Q424 -9 422 -9T416 -9Q386 -9 358 -3T306 17Q297 22 293 29T286 44Q285 47 285 49T285 54Q285 60 286
66T290 76Q295 86 304 92T326 99Q331 99 336 98T347 93V281Q347 310 333 329T286 349Q285 349 284 349T281 349Q257 347 238 329T218 288V95Q223 97 227 98T236 99Q247 98 256 92T271 76Q273 73 275 69T277 59Q277 58 277 57T277 53Q277 51 277 50T276 46Q275 38
270 31T255 17Q234 5 208 -1T154 -9Q151 -9 149 -9T143 -9Q113 -9 85 -3T33 17Q20 25 15 35T9 55Q9 61 10 67T15 77Q20 87 29 93T52 99Q57 99 61 98T71 95V526Q71 527 71 528T71 530Q71 536 71 538T64 541Q64 541 64 541T63 541Q63 541 63 541T62 541H43Q27 541
16 552T3 578Q3 579 3 580T3 582Q2 583 2 584T2 586Q3 599 9 610T29 626L161 671Q163 671 164 671T168 672Q169 673 171 673T174 673Q191 673 204 661T218 630V433Q241 450 267 459T321 469Q396 469 445 418T494 292V96Q496 97 498 97T503 98Q505 99 507 99T511
99Q522 99 532 93T547 77V77Z" />
<glyph unicode="i" glyph-name="i" horiz-adv-x="314" d="M270 77Q273 72 274 67T276 55Q276 54 276 52T276 49Q274 40 269 32T252 17Q231 5 205 -1T151 -9Q148 -9 146 -9T140 -9Q110 -9 82 -3T30 17Q19 23 13 31T6 49Q5 51 5 52T5 56Q5 62 6 67T11 77Q17 87 26
93T48 99Q53 99 58 98T69 94Q69 123 69 151T69 209Q69 237 69 266T69 323Q69 324 69 325T69 327Q69 333 68 335T60 338Q56 338 52 338T42 338Q26 338 15 348T2 374Q2 375 2 376T2 378Q1 379 1 380T1 382Q2 395 8 406T28 422Q60 433 93 444T159 467Q161 468 162
468T166 469Q168 469 169 469T173 469Q190 469 203 457T216 426Q216 344 216 262T216 96Q221 98 225 98T233 99Q246 99 255 93T270 77V77ZM187 632Q187 616 184 600T176 567Q173 557 170 547T163 528Q161 521 159 515T154 501Q152 492 145 488T129 483Q120 484
113 488T103 502Q100 510 98 518T92 536Q89 543 87 551T82 567Q77 583 74 599T70 632Q70 656 87 673T128 690Q153 690 170 673T187 632V632Z" />
<glyph unicode="j" glyph-name="j" horiz-adv-x="262" d="M222 -78Q222 -103 210 -126T178 -165Q160 -181 138 -189T91 -198Q87 -198 83 -198T75 -198Q56 -197 37 -192T1 -175Q-6 -170 -11 -163T-18 -148Q-19 -146 -19 -143T-20 -137Q-20 -130 -18 -124T-13 -113Q-7
-104 2 -98T24 -91Q27 -91 30 -91T37 -93Q40 -95 43 -96T49 -101Q50 -102 53 -103T60 -105Q61 -105 62 -105T65 -105Q70 -105 72 -104T75 -100Q75 -76 75 -19T75 105Q75 187 75 255T75 323Q75 329 72 333T60 338H47Q31 338 20 349T6 374Q6 375 6 376T6 378Q5 379
5 380T5 382Q6 395 13 406T33 422Q66 433 99 444T165 467Q167 468 168 468T172 469Q174 469 175 469T179 469Q196 469 209 457T222 426Q222 300 222 174T222 -77V-78ZM192 632Q192 616 189 600T181 567Q177 556 174 545T166 523Q164 518 162 512T158 501Q156 492
149 488T133 483Q125 484 118 488T108 502Q106 509 103 516T98 532Q95 541 92 549T86 567Q81 583 78 599T74 632Q74 656 91 673T133 690Q157 690 174 673T192 632V632Z" />
<glyph unicode="k" glyph-name="k" horiz-adv-x="599" d="M564 60Q542 29 511 5T439 -19Q409 -18 389 1T352 43Q349 47 347 50T342 58Q338 63 335 68T327 77Q300 109 273 140T220 202L217 200V95Q222 97 227 98T236 99Q248 99 258 93T273 77Q275 74 276 71T278
63Q279 61 279 60T279 56Q279 45 274 35T254 17Q233 5 207 -1T153 -9Q150 -9 148 -9T142 -9Q112 -9 84 -3T32 17Q19 25 14 35T8 55Q8 61 9 67T14 77Q19 87 28 93T51 99Q56 99 60 98T70 95V526Q70 527 70 528T70 530Q70 536 70 538T63 541Q63 541 63 541T62 541Q62
541 62 541T61 541H42Q26 541 15 552T2 578Q2 579 2 580T2 582Q1 583 1 584T1 586Q2 599 8 610T28 626L160 671Q162 671 163 671T167 672Q168 673 170 673T173 673Q190 673 203 661T217 630V313L293 377L274 383Q260 387 254 398T247 423Q247 425 247 426T247 429Q249
445 258 457T283 469H457Q480 469 491 456T503 425Q503 409 492 397T459 382Q440 381 426 373T398 353L320 287Q337 268 354 249T389 211Q406 191 423 172T457 134Q464 127 472 123T488 119Q494 119 500 120T512 125Q516 127 519 127T527 128Q537 128 545 124T560
111Q564 107 566 101T570 90Q571 88 571 86T571 82Q571 76 570 71T564 60V60Z" />
<glyph unicode="l" glyph-name="l" horiz-adv-x="298" d="M266 77Q269 73 270 67T272 55Q272 45 267 35T248 17Q227 5 201 -1T147 -9Q144 -9 142 -9T136 -9Q106 -9 78 -3T26 17Q15 23 9 31T2 49Q1 51 1 52T1 56Q1 62 2 67T7 77Q12 87 22 93T44 99Q49 99 53 98T63
95V526Q63 527 63 528T63 530Q63 536 63 538T56 541Q56 541 56 541T55 541Q55 541 55 541T54 541H36Q20 541 10 552T-4 578Q-4 579 -4 580T-5 582Q-5 582 -5 583T-5 585Q-5 586 -5 587T-5 589Q-3 601 3 611T22 626L153 671Q155 671 156 671T160 672Q161 673 163
673T166 673Q183 673 196 661T210 630V95Q215 97 220 98T229 99Q242 99 251 93T266 77V77Z" />
<glyph unicode="m" glyph-name="m" horiz-adv-x="867" d="M834 77Q836 74 837 71T839 63Q840 61 840 60T840 56Q840 45 835 35T815 17Q794 5 768 -1T714 -9Q711 -9 709 -9T703 -9Q673 -9 645 -3T593 17Q580 25 575 35T569 55Q569 61 570 67T575 77Q580 87 589
93T611 99Q613 99 614 99T618 98Q619 98 621 98T624 97Q624 144 624 189T624 281Q624 311 610 330T563 349Q559 349 555 348T546 346Q534 341 524 333T508 315Q508 314 508 313T506 310Q500 296 497 279T493 242V94Q493 93 493 93T493 91Q493 92 493 92T494 92Q501
96 507 97T519 99Q531 99 540 93T555 77Q558 72 559 67T561 55Q561 54 561 52T561 49Q559 40 554 32T537 17Q516 5 490 -1T436 -9Q433 -9 431 -9T425 -9Q395 -9 367 -3T315 17Q304 23 298 31T291 49Q290 51 290 52T290 56Q291 62 292 67T296 77Q302 87 311 93T333
99Q335 99 336 99T340 98Q341 98 343 98T346 97Q346 144 346 189T346 281Q346 311 332 330T285 349Q282 349 279 349T272 348Q252 344 236 329T219 295V95Q222 96 224 97T229 98Q231 99 233 99T239 99Q250 99 260 93T275 77Q278 73 279 67T281 55Q281 45 276 35T257
17Q236 5 210 -1T156 -9Q153 -9 151 -9T145 -9Q115 -9 87 -3T35 17Q24 23 18 31T11 49Q10 51 10 52T10 56Q10 62 11 67T16 77Q21 87 31 93T53 99Q58 99 62 98T72 95V323Q72 324 72 324T72 325Q71 330 68 334T57 338Q53 338 49 338T44 338Q28 338 18 349T4 374Q4
375 4 376T4 378Q3 379 3 380T3 382Q4 396 10 407T30 422Q47 428 63 433T96 445Q112 450 128 455T161 467Q163 468 164 468T168 469Q170 469 171 469T175 469Q190 469 202 459T218 434Q238 448 259 456T304 467Q311 468 318 468T333 468Q369 466 402 449T459 400Q485
432 521 451T599 469Q673 467 722 417T771 292V91L772 92Q779 96 785 97T797 99Q809 99 819 93T834 77V77Z" />
<glyph unicode="n" glyph-name="n" horiz-adv-x="586" d="M549 77Q551 74 552 71T554 63Q555 61 555 60T555 56Q555 45 550 35T530 17Q507 4 478 -2T418 -9Q415 -9 412 -9T406 -9Q380 -8 355 -2T308 17Q295 25 290 35T284 56Q284 58 284 59T285 63Q285 67 286
70T290 77Q295 87 305 93T327 99Q330 99 333 99T339 97Q340 97 342 97T345 95Q345 142 345 188T345 281Q345 310 331 329T284 349Q281 349 278 349T273 348Q252 344 235 328T217 291V95Q220 96 222 97T227 98Q229 99 231 99T237 99Q248 99 258 93T273 77Q275 74
276 71T278 63Q279 61 279 60T279 56Q279 45 274 35T254 17Q231 4 202 -2T143 -9Q113 -9 85 -3T33 17Q22 23 16 31T9 49Q8 51 8 52T8 56Q8 62 9 67T14 77Q19 87 29 93T51 99Q56 99 60 98T70 95V323Q70 324 70 324T70 325Q69 330 66 334T55 338Q51 338 47 338T42
338Q26 338 15 349T1 374Q1 375 1 376T1 378Q0 379 0 380T0 382Q1 395 8 406T28 422Q45 428 61 433T94 445Q110 450 126 455T159 467Q162 469 165 469T173 469Q188 469 201 459T216 433Q239 450 265 459T319 469Q394 469 443 418T492 292V95Q497 97 502 98T512
99Q524 99 534 93T549 77V77Z" />
<glyph unicode="o" glyph-name="o" horiz-adv-x="527" d="M496 227Q496 126 425 52T251 -22Q148 -22 77 52T6 227Q6 329 77 403T251 478Q354 478 425 404T496 227V227ZM339 249Q336 260 330 273T317 300Q300 329 276 353T222 377Q220 377 219 377T215 376Q213
376 212 376T208 375Q181 368 169 342T155 285Q155 281 155 278T155 270Q155 251 157 235T163 206Q166 195 171 182T185 155Q201 126 225 102T279 78Q283 78 286 78T294 80Q322 87 333 114T346 173Q346 177 346 180T346 186Q346 204 344 220T339 249V249Z" />
<glyph unicode="p" glyph-name="p" horiz-adv-x="574" d="M534 223Q533 121 467 51T297 -20Q271 -20 248 -16T203 -2V-80Q206 -78 208 -77T213 -76Q215 -75 217 -75T223 -75Q234 -75 244 -81T259 -96Q262 -101 263 -106T265 -118Q265 -129 260 -139T240 -157Q217
-171 188 -177T129 -184Q99 -184 71 -178T19 -157Q8 -151 3 -143T-4 -125Q-5 -123 -5 -122T-5 -118Q-5 -112 -4 -107T0 -96Q5 -87 14 -81T37 -75Q42 -75 46 -76T56 -79V356Q56 357 56 357T56 359Q55 361 55 362T52 364Q50 365 47 365T41 365Q25 365 16 377T4 405Q4
407 4 408T4 411Q4 425 11 436T33 450L152 472Q153 472 154 472T156 473Q157 473 157 473T159 473Q173 473 184 465T200 445Q223 456 248 462T302 469Q402 469 469 395T534 223V223ZM380 214Q379 226 376 240T368 268Q355 304 330 333T266 360Q246 359 230 344T203
305V164Q208 149 215 137T231 113Q245 97 264 85T305 74Q340 77 362 117T380 214V214Z" />
<glyph unicode="q" glyph-name="q" horiz-adv-x="543" d="M537 -97Q540 -101 541 -107T543 -119Q543 -130 538 -140T519 -157Q496 -171 467 -177T408 -183Q377 -183 349 -177T297 -157Q286 -151 280 -143T273 -125Q272 -123 272 -122T272 -118Q272 -112 273 -107T278
-96Q283 -87 293 -81T315 -75Q320 -75 325 -76T336 -80V1Q313 -9 288 -14T237 -20Q137 -20 70 53T4 224Q6 327 71 398T242 469Q276 469 305 461T359 439L418 472Q423 475 428 476T438 477Q444 477 450 476T461 471Q471 466 477 456T483 434V-79Q488 -77 492 -76T501
-75Q512 -75 522 -81T537 -96V-97ZM336 143V281Q323 317 298 346T234 373Q198 370 176 330T158 233Q159 221 162 208T169 180Q182 145 206 116T267 87Q293 87 310 103T336 143V143Z" />
<glyph unicode="r" glyph-name="r" horiz-adv-x="439" d="M280 77Q282 74 283 71T285 63Q286 61 286 60T286 56Q286 45 281 35T261 17Q240 5 214 -1T160 -9Q157 -9 155 -9T149 -9Q119 -9 91 -3T39 17Q26 25 21 35T15 55Q15 61 16 67T21 77Q26 87 35 93T57 99Q59
99 61 99T65 98Q67 98 69 98T73 96V323Q73 329 69 334T55 341L34 345Q19 348 11 359T1 384Q0 398 6 411T27 429L141 467Q145 469 148 469T156 470Q180 469 194 443T215 385Q217 370 218 356T220 330V93Q226 96 232 97T244 99Q256 99 265 93T280 77V77ZM394 413Q398
403 399 394T401 374Q401 346 387 323T348 291Q345 290 342 289T337 288Q334 287 331 287T325 287Q297 287 273 306T237 359Q234 369 232 378T230 398Q231 427 244 450T283 481Q288 483 294 484T306 485Q307 485 308 485T311 485Q337 483 360 464T394 413V413Z"
/>
<glyph unicode="s" glyph-name="s" horiz-adv-x="402" d="M371 132Q371 95 356 69T314 23Q289 4 259 -4T196 -12Q191 -12 186 -12T176 -11Q160 -10 145 -7T116 0Q115 -4 112 -7T105 -14Q99 -19 92 -22T77 -25Q75 -25 73 -25T68 -24Q61 -23 55 -19T42 -8Q24 12
13 40T0 97Q0 99 0 101T0 106Q0 110 0 113T1 121Q1 129 3 136T7 151Q12 168 23 175T48 183Q52 183 55 183T62 181Q79 175 83 167T88 148Q89 144 89 140T91 131Q100 99 124 80T183 60Q207 60 222 67T238 90Q238 104 229 115T208 134Q206 135 204 136T200 139Q195
142 190 144T179 150Q177 151 176 152T172 154Q158 161 145 169T116 185Q80 207 54 240T27 330Q27 360 41 388T78 436Q98 453 123 461T174 472Q176 472 179 472T185 472Q201 472 216 470T246 463Q248 468 251 472T259 479Q265 484 272 486T286 489Q289 489 292
489T298 487Q304 485 310 481T322 469Q336 452 344 430T354 385Q355 381 355 377T355 369Q355 356 353 343T346 319Q340 304 330 298T309 289Q308 289 307 289T304 289Q302 289 300 289T296 290Q294 290 292 290T288 292Q277 297 269 307T261 332Q261 337 262 341T265
351Q266 353 266 354T267 358Q266 363 263 368T254 378Q244 386 232 390T207 393Q188 392 175 382T162 352Q163 336 183 323T232 295Q240 291 247 287T263 279Q304 256 337 220T371 132V132Z" />
<glyph unicode="t" glyph-name="t" horiz-adv-x="332" d="M308 436Q308 435 308 435T308 433Q307 421 298 411T271 401H187V105Q187 89 194 79T218 69Q223 69 228 71T238 77Q239 78 240 79T242 81Q244 83 246 85T250 88Q252 90 254 91T258 93Q262 95 266 96T275
97Q280 97 285 96T295 90Q301 85 305 78T309 63Q309 58 307 52T300 40Q280 14 251 -2T187 -19Q131 -19 94 20T56 114V401H34Q23 401 15 408T2 425Q1 428 1 431T0 436Q0 444 3 451T14 464L132 552Q137 556 142 557T152 559Q157 559 160 558T168 555Q176 551 181
543T187 525V471H271Q289 471 298 461T308 439Q308 438 308 438T308 436V436Z" />
<glyph unicode="u" glyph-name="u" horiz-adv-x="574" d="M295 355Q288 362 285 370T281 388Q281 398 285 407T299 426Q315 440 334 450T376 466Q381 467 386 468T398 470Q403 470 408 470T419 471Q430 471 441 470T463 465Q482 459 491 447T501 420Q501 419 501
418T501 416Q501 415 501 414T501 413Q500 412 500 411T500 409L501 137Q501 129 502 124T513 119H531Q546 119 556 109T569 85Q569 84 569 83T569 79Q569 66 563 55T544 40L413 -5Q412 -5 410 -5T407 -6Q405 -6 404 -6T400 -6Q384 -6 372 5T359 33V31Q343 17 314
6T253 -5Q180 -5 132 45T83 168V347Q75 340 67 337T51 333Q41 333 32 338T16 352Q12 358 9 366T5 385Q5 388 5 390T6 396Q8 404 12 411T24 426Q39 440 59 450T101 466Q112 468 122 469T143 471Q154 471 165 470T187 465Q204 460 213 449T224 425Q225 423 225 421T225
417Q225 416 225 415T225 413Q225 412 225 411T224 409L225 178Q225 149 241 129T288 108Q291 108 294 108T300 109Q322 113 340 130T359 168V355Q349 348 341 345T324 341Q316 341 309 344T295 355V355Z" />
<glyph unicode="v" glyph-name="v" horiz-adv-x="554" d="M531 390Q525 377 514 368T486 359Q481 359 476 360T464 364Q462 365 461 365T457 367L304 27Q298 12 285 5T257 -4Q256 -4 255 -4T253 -4Q237 -4 222 3T201 27L61 358Q57 357 53 356T43 355Q29 355 18
363T1 384Q-1 389 -2 395T-4 407Q-4 420 3 431T26 450Q48 461 74 465T129 470Q156 470 182 465T230 450Q246 443 253 432T261 407Q261 401 260 395T255 384Q250 372 241 365T217 355L288 187L369 365Q369 365 369 365T368 365Q367 364 367 364T366 364Q360 362
354 361T343 360Q327 360 316 368T298 390Q297 395 296 399T294 409Q294 411 294 413T295 418Q298 429 306 439T329 455Q348 463 370 466T416 470Q439 470 461 467T502 455Q518 448 526 438T536 416Q536 414 536 413T536 410Q536 405 535 400T531 390V390Z" />
<glyph unicode="w" glyph-name="w" horiz-adv-x="829" d="M815 385Q810 372 798 364T769 355Q764 355 759 356T747 360Q746 360 745 360T744 361Q743 361 742 361T740 362L586 22Q579 8 565 0T535 -8Q534 -8 533 -8T531 -8Q516 -7 503 1T484 23L398 225L307 22Q300
8 286 0T256 -8Q240 -8 225 -1T204 23L65 353Q61 352 57 351T47 350Q32 350 21 358T4 378Q1 383 0 389T-1 402Q-1 415 6 426T29 445Q51 456 77 460T132 465Q159 465 185 460T233 445Q249 438 256 426T264 401Q264 395 263 389T258 378Q253 368 243 361T219 351L291
182L356 325L344 353Q340 352 336 351T327 350Q312 351 300 359T283 379Q281 384 280 389T278 401Q278 414 285 426T309 445Q331 456 357 460T412 465Q439 465 465 460T512 445Q527 438 534 428T543 406Q543 404 543 403T543 400Q543 395 542 390T538 379Q533 369
523 361T499 351L571 183L651 360Q651 360 651 360T650 360Q649 359 649 359T648 359Q642 357 637 356T626 354Q610 354 599 363T581 385Q580 390 579 394T577 404Q577 405 577 406T577 409Q579 422 587 433T611 451Q630 459 652 462T699 466Q722 466 744 463T785
451Q800 445 808 435T818 412Q819 410 819 408T819 403Q819 399 818 395T815 385V385Z" />
<glyph unicode="x" glyph-name="x" horiz-adv-x="510" d="M491 78Q494 73 495 67T497 55Q497 42 490 31T466 12Q444 2 418 -2T363 -7Q336 -7 310 -3T262 12Q247 19 240 29T230 51Q230 53 230 54T230 57Q231 62 232 67T236 78Q238 83 242 87T250 96L223 135L200
100Q208 96 214 90T225 76Q227 71 228 66T230 54Q230 53 230 52T230 48Q228 37 221 27T199 9Q182 1 161 -2T118 -6Q115 -6 113 -6T107 -6Q89 -5 71 -2T39 9Q25 16 18 26T9 48Q9 50 9 51T9 54Q9 57 9 59T10 65Q11 68 12 70T14 76Q19 89 30 96T57 104Q62 104 68 103T82
98Q85 97 89 96T97 94L174 205Q174 205 159 229T126 284Q108 314 93 339T78 364Q76 364 75 363T72 362Q71 362 71 362T69 361Q62 358 56 357T44 355Q29 355 18 363T1 384Q-1 389 -2 395T-3 407Q-3 420 3 431T26 450Q48 461 74 465T129 470Q156 470 182 465T230
450Q246 443 253 432T261 407Q261 401 260 395T255 384Q254 380 252 377T247 370L274 330L296 361Q288 366 282 372T271 386Q269 391 268 396T266 408Q266 421 273 433T297 452Q314 460 335 464T378 468Q381 468 383 468T389 468Q407 467 425 463T457 452Q472 445
479 435T488 413Q488 411 488 410T488 407Q488 402 487 397T483 386Q478 373 466 365T439 357Q433 357 427 358T414 363Q413 364 411 364T407 366Q405 366 403 366T398 368L323 249L420 99Q421 99 421 99T423 100Q430 103 436 104T449 106Q464 106 475 98T491 78V78Z"
/>
<glyph unicode="y" glyph-name="y" horiz-adv-x="553" d="M73 359Q68 357 63 356T53 355Q38 355 27 363T11 384Q8 389 7 395T5 407Q5 420 12 431T36 450Q58 461 84 465T139 470Q166 470 192 465T240 450Q256 443 263 432T271 407Q271 401 270 395T265 384Q261
373 252 366T230 356L311 193L380 365Q380 365 380 365T378 364Q377 364 377 364T376 363Q370 361 365 360T354 359Q338 359 326 368T308 390Q307 395 306 399T304 409Q304 411 304 413T305 418Q308 429 316 439T339 455Q358 463 380 466T426 470Q449 470 471 467T512
455Q528 448 536 438T546 416Q546 414 546 413T546 410Q546 405 545 400T541 390Q535 377 524 368T496 359Q491 359 486 360T474 364Q473 365 472 365T469 366L317 -13Q316 -14 315 -16T313 -22Q301 -51 284 -79T245 -128Q223 -151 194 -163T135 -176Q116 -176
97 -170T60 -150Q44 -137 34 -119T24 -75Q24 -43 46 -18T102 7Q134 7 156 -16T179 -71Q180 -72 181 -72T183 -72Q184 -72 184 -72T186 -70Q187 -70 188 -70T190 -68Q191 -67 192 -66T194 -64Q196 -62 197 -60T200 -57Q206 -49 212 -41T222 -23Q226 -16 227 -8T229
8Q229 10 229 12T229 16Q228 28 225 40T217 61L73 359V359Z" />
<glyph unicode="z" glyph-name="z" horiz-adv-x="459" d="M448 125Q448 119 448 114T447 102Q442 68 421 36T371 -13Q364 -18 357 -20T341 -22Q328 -22 318 -16T301 0H50Q32 0 21 12T9 41Q9 46 10 51T15 62L231 387H117Q114 383 112 379T108 371Q107 367 106 363T105
355Q106 329 91 316T57 301Q56 301 56 301T54 301Q37 301 23 314T7 352Q7 357 7 362T8 371Q13 407 34 439T85 490Q93 495 100 497T115 499Q128 499 138 493T155 475Q155 474 155 474T157 472Q158 471 158 470T159 468H382Q399 468 410 455T422 426Q422 421 421
416T416 406L194 81H333Q337 86 340 92T346 104Q348 109 349 113T350 122Q349 148 364 161T397 176Q416 176 431 164T448 125V125Z" />
<glyph unicode="{" glyph-name="braceleft" horiz-adv-x="500" />
<glyph unicode="|" glyph-name="bar" horiz-adv-x="500" />
<glyph unicode="}" glyph-name="braceright" horiz-adv-x="500" />
<glyph unicode="~" glyph-name="asciitilde" horiz-adv-x="500" />
</font>
</defs>
</svg>
