<?xml version="1.0" standalone="no"?> <!DOCTYPE svg PUBLIC "-//W3C//DTD SVG 1.0//EN" "http://www.w3.org/TR/2001/REC-SVG-20010904/DTD/svg10.dtd" > <svg xmlns="http://www.w3.org/2000/svg" width="100%" height="100%">
<defs>
<font horiz-adv-x="271" id="fontdiner"><font-face
    font-family="Fontdinerdotcom Sparkly"
    units-per-em="1000"
    panose-1="2 0 5 6 6 0 0 2 0 4"
    ascent="750"
    descent="-170"
    alphabetic="0" />
<missing-glyph horiz-adv-x="237" />
<glyph unicode=" " glyph-name="space" horiz-adv-x="237" />
<glyph unicode="!" glyph-name="exclam" horiz-adv-x="149" d="M128 24Q128 14 125 3T115 -17T100 -31T80 -37Q68 -37 60 -31T46 -16T37 5T34 26Q34 36 37 46T46 66T61 80T82 86Q94 86 102 80T116 65T125 45T128 24ZM97 157Q97 148 89 148L65 147Q55 145 55 155L32
838Q32 847 41 847L102 849Q106 849 109 847T111 840L97 157Z" />
<glyph unicode="&quot;" glyph-name="quotedbl" horiz-adv-x="254" d="M106 653Q104 630 104 608T101 562L91 360Q91 355 90 352T82 348Q76 347 70 347T58 346Q49 346 49 355L32 655Q32 665 42 665L98 661Q106 661 106 653ZM222 653Q220 630 220 608T217 562L207
360Q206 355 205 352T198 348Q192 347 186 347T174 346Q165 346 165 355L148 655Q148 665 157 665L214 661Q222 661 222 653Z" />
<glyph unicode="#" glyph-name="numbersign" horiz-adv-x="620" d="M248 275L222 124L360 127L380 278L248 275ZM588 294Q588 283 577 283L444 280L418 128L552 132Q556 132 559 129T563 121Q563 111 552 109L414 106L386 -58Q385 -65 377 -67Q369 -68 362 -69T347
-70Q342 -70 339 -67T336 -58V-57L357 105L219 102L191 -58Q190 -65 181 -67Q174 -68 167 -69T152 -70Q147 -70 144 -67T141 -58V-57L162 100L33 97Q22 97 22 108Q22 116 27 117T39 120L165 123L184 273L58 270Q47 270 47 281Q47 289 52 291T64 293L187 296L210
472Q212 481 221 481Q233 481 246 480T271 476Q281 474 281 465V463L252 297L383 300L405 472Q407 481 416 481Q428 481 441 480T466 476Q476 474 476 465V463L448 302L576 305Q581 305 584 302T588 294Z" />
<glyph unicode="$" glyph-name="dollar" horiz-adv-x="407" d="M239 35Q231 40 224 44T208 54L214 -183H223H228Q235 -183 239 -182V35ZM323 -73Q323 -40 305 -18T260 22L259 -178Q294 -167 308 -137T323 -73ZM175 511Q152 502 138 486T115 449T103 405T99 360Q99
304 120 263T183 186L175 511ZM241 513Q225 517 205 517Q202 518 195 516L204 169Q213 162 222 156T240 144L241 513ZM385 -28Q385 -92 354 -138T259 -201V-283Q259 -293 249 -293Q238 -293 238 -283L239 -205H215L217 -284Q217 -295 207 -295Q196 -295 196 -285L194
-203Q169 -199 145 -189T102 -163T70 -124T58 -74Q58 -62 61 -49T72 -24T89 -6T114 2Q135 2 148 -12T167 -44Q169 -48 170 -53T172 -63Q172 -67 170 -71T162 -75Q156 -75 154 -73T150 -66Q148 -60 146 -52T140 -37T130 -25T114 -20Q105 -20 99 -26T88 -40T82 -57T80
-74Q80 -97 90 -115T116 -146T152 -168T193 -180L187 67Q114 111 75 167T35 311Q35 345 43 381T68 449T111 504T174 536L171 631Q171 641 181 641Q192 641 192 631L194 539Q197 539 200 539T205 540Q214 540 223 540T241 538V634Q241 645 252 645Q262 645 262 634V538Q306
538 325 558T353 621Q355 631 364 631Q369 631 372 628T375 619L360 320L355 213Q355 203 344 203Q339 203 336 206T333 214Q335 246 337 277T339 340Q339 363 336 388T325 436T301 478T262 507L260 130Q282 116 304 100T344 66T373 24T385 -28Z" />
<glyph unicode="%" glyph-name="percent" horiz-adv-x="594" d="M536 21Q536 36 534 72T525 145T504 211T465 240Q450 240 439 222T420 181T408 134T401 100Q395 60 395 17Q395 8 396 -11T399 -53T407 -100T419 -144T438 -176T464 -189Q478 -189 489 -174T509
-139T522 -98T529 -68Q533 -45 534 -24T536 21ZM223 437Q223 452 221 487T212 560T191 626T152 655Q137 655 126 637T107 596T94 550T87 516Q81 476 81 433Q81 424 82 405T86 363T93 316T106 272T125 240T151 227Q166 227 178 244T198 284T212 330T218 363Q221
382 222 400T223 437ZM562 21Q562 7 560 -16T554 -64T543 -116T524 -163T498 -198T462 -211Q425 -211 402 -185T367 -123T350 -48T345 17Q345 44 349 85T366 166T402 234T463 262Q486 262 502 248T529 213T546 164T556 110T561 60T562 21ZM537 686Q537 685 521
649T478 555T417 421T346 266T274 108T209 -34T159 -141T134 -197Q131 -204 120 -204T103 -205Q98 -206 95 -203T91 -194Q91 -193 105 -159T142 -69T194 58T255 206T318 356T374 491T416 594T439 647Q413 633 385 627T328 620Q299 620 270 623T212 635Q224 615
231 590T242 539T247 486T249 437Q249 423 247 400T241 352T230 300T211 253T185 218T149 205Q112 205 89 231T54 293T37 368T32 433Q32 451 33 476T40 528T53 582T74 630T106 665T150 678Q158 678 164 676T178 671Q210 654 251 649T328 643Q364 643 395 652T454
685Q460 689 462 689L525 697Q530 697 533 694T537 686Z" />
<glyph unicode="&amp;" glyph-name="ampersand" horiz-adv-x="485" d="M287 -76Q245 -2 206 72T133 224Q107 175 97 124T86 18Q86 -5 88 -36T100 -94T127 -141T176 -161Q196 -161 212 -154T242 -134T267 -107T287 -76ZM238 495Q238 509 236 531T228 575T209 612T175
628Q169 628 163 626T151 619Q126 601 118 570T109 509Q109 487 114 462T128 410T145 359T164 314Q180 336 193 356T217 398T232 442T238 495ZM473 325Q473 313 463 312L397 302Q392 222 379 137T337 -23Q354 -52 371 -81T407 -140Q410 -139 417 -135T431 -127T446
-119T455 -116Q467 -116 467 -128Q467 -135 461 -138Q457 -140 442 -148T410 -166T379 -182T362 -190Q360 -190 360 -190T357 -189Q354 -188 346 -176T329 -147T311 -117T301 -99Q280 -134 250 -159T176 -184H166Q129 -180 104 -162T62 -117T39 -58T32 8Q32 77
58 137T122 252Q113 275 103 302T84 357T71 413T65 466Q65 492 69 524T85 584T118 632T173 652Q204 652 225 640T259 607T277 560T283 507Q283 479 272 450T245 392T210 337T175 288Q207 215 244 145T321 5Q344 76 356 150T373 299L302 289Q298 288 294 291T289
299Q289 311 299 312L460 335Q464 336 468 333T473 325Z" />
<glyph unicode="&apos;" glyph-name="quotesingle" horiz-adv-x="138" d="M106 653Q104 630 104 608T101 562L91 360Q91 355 90 352T82 348Q76 347 70 347T58 346Q49 346 49 355L32 655Q32 665 42 665L98 661Q106 661 106 653Z" />
<glyph unicode="(" glyph-name="parenleft" horiz-adv-x="293" d="M312 683Q312 678 309 675T301 671Q279 671 261 655T229 614T203 557T183 495T170 438T162 396Q155 351 152 307T149 218Q149 178 151 139T159 59Q161 42 165 16T177 -40T196 -98T221 -151T255
-189T298 -204Q309 -204 309 -215Q309 -223 304 -224T292 -226Q246 -226 212 -203T153 -141T113 -55T88 43T76 138T72 218Q72 263 75 307T85 395Q92 437 106 488T144 584T205 661T294 694H296Q301 694 306 693T312 683Z" />
<glyph unicode=")" glyph-name="parenright" horiz-adv-x="293" d="M222 218Q222 184 219 138T206 43T182 -54T141 -141T82 -202T1 -226Q-4 -226 -9 -225T-15 -215Q-15 -204 -4 -204Q20 -204 39 -190T72 -152T98 -99T116 -40T128 15T135 59Q140 99 142 138T145
218Q145 263 142 307T132 396Q130 411 125 437T111 494T92 556T66 613T33 655T-7 671Q-12 671 -15 674T-18 683Q-18 691 -13 692T-2 694H0Q52 693 88 662T149 585T188 488T209 395Q216 351 219 307T222 218Z" />
<glyph unicode="*" glyph-name="asterisk" horiz-adv-x="406" d="M235 391L347 269L226 379L203 99L180 379L60 269L171 391L0 412L171 434L60 556L180 446L203 726L226 446L347 556L235 434L406 412L235 391Z" />
<glyph unicode="+" glyph-name="plus" horiz-adv-x="464" d="M437 175Q437 170 435 167T427 163L268 160L262 -29Q262 -35 260 -39T251 -44Q242 -45 233 -46T215 -47Q206 -47 204 -36L197 159L38 155Q27 155 27 166Q27 177 38 177L197 181L189 372Q189 377 192
380T200 384Q216 384 232 383T265 380Q275 378 275 368L269 182L426 186Q437 186 437 175Z" />
<glyph unicode="," glyph-name="comma" horiz-adv-x="157" d="M126 24Q126 -16 106 -57T59 -128Q64 -111 66 -95T69 -62Q69 -56 69 -48T66 -34Q48 -28 40 -10T32 26Q32 36 35 46T44 66T59 80T80 86Q91 86 99 80T114 65T123 45T126 24Z" />
<glyph unicode="-" glyph-name="hyphen" horiz-adv-x="474" d="M442 175Q442 170 440 167T432 163L43 155Q32 155 32 166Q32 177 43 177L431 186Q442 186 442 175Z" />
<glyph unicode="." glyph-name="period" horiz-adv-x="157" d="M126 24Q126 14 123 3T114 -17T99 -31T78 -37Q66 -37 58 -31T44 -16T35 5T32 26Q32 36 35 46T44 66T59 80T80 86Q92 86 100 80T114 65T123 45T126 24Z" />
<glyph unicode="/" glyph-name="slash" horiz-adv-x="383" d="M450 715Q450 712 449 711L-9 -211Q-12 -218 -24 -218T-42 -219Q-53 -219 -53 -208Q-53 -205 -52 -203L363 712Q364 717 372 719Q388 721 406 724T440 727Q445 727 447 724T450 715Z" />
<glyph unicode="0" glyph-name="zero" horiz-adv-x="450" d="M380 231Q380 272 377 329T366 446T341 559T298 646Q287 660 273 669T242 678Q222 678 205 661T175 618T151 559T133 495T122 438T115 398Q109 354 107 311T104 225Q104 183 106 143T114 61Q116 46
120 21T130 -33T146 -91T169 -143T200 -182T239 -197Q259 -197 275 -182T306 -141T330 -86T348 -27T360 27T367 66Q374 108 377 148T380 231ZM418 231Q418 146 403 63Q400 45 394 17T377 -43T354 -106T323 -163T285 -204T239 -219H234H233Q189 -217 157 -192T103
-128T67 -41T45 55T35 149T32 225Q32 257 34 304T45 403T66 507T103 601T158 671T236 701L238 700L242 701Q263 702 281 691T314 665Q347 630 367 575T399 459T414 337T418 231Z" />
<glyph unicode="1" glyph-name="one" horiz-adv-x="236" d="M216 -198Q216 -209 206 -209L34 -229H32Q27 -229 24 -226T21 -217Q21 -207 31 -207L97 -199L72 641Q69 639 62 634T46 623T30 613T19 609Q8 609 8 620Q8 626 13 629Q19 633 40 647T85 676T129 704T152
717Q163 717 163 704V702L145 -194Q159 -192 175 -190T205 -187Q210 -187 213 -190T216 -198Z" />
<glyph unicode="2" glyph-name="two" horiz-adv-x="430" d="M396 457Q396 400 383 355T347 270T292 194T222 119Q213 110 198 95T167 62T138 29T118 1Q111 -12 103 -28T88 -61T77 -96T72 -129V-142L345 -126L351 -72Q352 -62 363 -62Q368 -62 371 -66T373 -74L359
-201Q357 -211 348 -211L40 -222Q35 -222 32 -219T28 -211Q28 -139 53 -75T123 45Q133 57 143 68T163 91Q199 132 228 175T279 265T312 362T324 469Q324 501 319 537T298 606T258 659T191 680Q160 680 133 670T85 640T53 595T41 536Q41 521 44 506T55 478T75 457T105
449Q125 449 140 457T163 486Q165 491 165 495T166 505Q168 510 170 513T178 516Q183 516 186 513T189 504Q189 469 164 448T105 427Q82 427 65 436T35 460T17 495T11 536Q11 573 26 603T66 656T123 690T191 702Q244 702 282 682T346 627T384 549T396 457Z" />
<glyph unicode="3" glyph-name="three" horiz-adv-x="443" d="M418 10Q418 -48 400 -104T334 -199Q305 -222 270 -234T196 -246Q158 -246 123 -234T61 -200T18 -145T2 -72Q2 -50 9 -27T29 15T62 45T107 57Q145 57 170 33T196 -30Q196 -35 194 -38T186 -42Q180
-42 178 -39T174 -31Q173 -26 173 -21T170 -10Q155 35 107 35Q87 35 73 25T49 -2T36 -37T32 -72Q32 -102 42 -129T72 -176T117 -208T174 -220Q216 -220 247 -199T298 -144T328 -72T338 4Q338 50 327 90T292 163T234 216T152 245Q150 246 149 246T146 245Q135 245
135 256Q135 266 145 268Q155 269 163 270T182 273Q218 281 243 301T285 349T309 410T317 478Q317 508 311 543T289 607T247 656T183 676Q155 676 130 668T85 643T53 603T41 549Q41 534 44 519T55 492T75 473T105 465Q126 465 142 473T167 501Q169 507 171 515Q173
520 175 522T184 524Q189 524 191 520T193 512Q193 508 191 501T187 491Q175 467 154 455T105 443Q60 443 36 475T11 549Q11 584 26 612T65 659T120 688T183 698Q234 698 272 682T337 637T377 568T391 477Q391 389 341 335T209 257Q255 245 293 224T359 171T402
100T418 10Z" />
<glyph unicode="4" glyph-name="four" horiz-adv-x="431" d="M244 476L30 -21L262 -22L244 476ZM411 -189Q411 -199 400 -201L190 -220H189Q184 -221 181 -217T177 -208Q177 -203 180 -200T188 -196L268 -188L262 -44L13 -43Q2 -43 2 -32Q2 -31 14 -2T47 76T94
186T149 313T204 442T254 558T293 647T313 693Q316 700 323 700Q334 700 334 689L330 -22H378L380 60Q382 71 392 71Q397 71 400 68T403 59L398 -107Q398 -117 387 -117Q376 -117 376 -106L378 -44H329V-183Q346 -181 364 -179T399 -176Q404 -176 407 -180T411
-189Z" />
<glyph unicode="5" glyph-name="five" horiz-adv-x="461" d="M420 59Q420 1 404 -56T348 -157Q322 -185 288 -201T216 -218Q173 -218 137 -202T76 -159T37 -94T23 -15Q23 10 30 36T53 83T89 119T139 133Q176 133 203 109T239 51Q240 50 240 48Q240 37 229 37Q221
37 218 45Q216 50 214 55T210 65Q199 85 181 98T139 111Q116 111 100 99T74 68T58 28T53 -13Q53 -40 59 -66T78 -116T110 -158T157 -186H158Q166 -185 175 -188T195 -191Q237 -191 264 -166T308 -105T331 -27T338 46Q338 97 328 146T293 235T230 298T131 322Q100
322 73 315Q71 314 67 314Q62 314 59 317T57 325L66 589Q66 598 76 600L379 630H381Q382 635 382 641T383 655T388 666T397 671Q402 671 405 667T407 659L393 542Q393 532 382 532L86 524L79 339Q101 344 123 346T167 349Q233 349 281 327T360 267T405 175T420
59Z" />
<glyph unicode="6" glyph-name="six" horiz-adv-x="494" d="M419 40Q419 74 413 119T391 204T345 273T271 301Q246 301 225 290T186 260Q171 244 161 223T145 180T137 134T134 89Q134 71 137 41T147 -23T165 -91T192 -154T228 -199T275 -217Q301 -217 322 -203T360
-166T388 -119T405 -71Q413 -44 416 -17T419 40ZM454 40Q454 6 449 -30T430 -99T397 -162T347 -213Q331 -224 313 -232T275 -239H269Q223 -238 189 -214T130 -151T90 -65T65 31T53 126T49 205Q49 246 52 289T61 376T79 461T109 540Q121 566 136 589T172 629T218
657T273 668Q306 668 333 656T381 617Q384 620 390 629T404 647T419 664T430 671Q441 671 441 660Q441 657 425 636T389 589T350 542T327 513Q323 509 318 509Q307 509 307 520Q307 523 315 534T332 557T351 580T364 595Q350 618 328 632T278 646Q256 646 238 631T206
592T180 539T160 481T147 427T139 386Q132 343 129 301T126 214V193Q133 218 146 241T177 283T219 312T271 323Q322 323 356 294T413 222T444 130T454 40Z" />
<glyph unicode="7" glyph-name="seven" horiz-adv-x="396" d="M385 660L222 -186L292 -184Q303 -184 303 -195Q303 -206 292 -206L95 -212Q90 -213 87 -210T84 -202Q84 -190 95 -190L168 -188L284 649L45 645V480Q45 469 35 469Q30 469 27 471T23 479L12 655Q12
665 23 667Q111 669 198 671T374 673Q379 673 382 670T386 662L385 660Z" />
<glyph unicode="8" glyph-name="eight" horiz-adv-x="451" d="M397 12Q397 44 390 83T365 157T320 215T252 239Q212 239 183 216T136 159T109 85T100 12Q100 -21 108 -61T135 -135T183 -193T252 -216Q292 -216 319 -193T364 -134T389 -60T397 12ZM373 466Q373
492 367 527T347 594T310 648T252 670Q217 670 193 649T153 596T131 529T124 466Q124 438 131 403T153 337T192 284T252 262Q287 262 310 284T347 337T367 404T373 466ZM427 12Q427 -33 415 -77T378 -158T316 -216T227 -238Q178 -238 141 -215T79 -156T41 -76T28
12Q28 48 36 85T63 155T108 213T171 252Q141 266 120 289T84 342T63 403T56 466Q56 503 66 543T98 616T152 670T227 692Q274 692 306 672T359 619T389 546T399 466Q399 435 394 403T377 342T343 290T291 252Q327 239 353 213T395 154T419 84T427 12Z" />
<glyph unicode="9" glyph-name="nine" horiz-adv-x="477" d="M350 361Q350 379 347 409T337 472T319 540T292 603T256 648T209 666Q182 666 161 652T123 616T95 569T78 521Q70 494 67 466T64 410Q64 376 70 331T93 246T139 177T213 149Q238 149 259 160T297 190Q312
206 322 227T339 270T347 316T350 361ZM435 245Q435 205 432 161T422 74T404 -11T375 -90Q363 -116 347 -139T311 -180T266 -208T211 -219Q144 -219 102 -167Q99 -171 93 -180T80 -198T65 -214T54 -221Q43 -221 43 -210Q43 -207 59 -186T95 -139T133 -92T157 -64Q160
-60 165 -60Q176 -60 176 -71Q176 -74 169 -84T151 -107T132 -131T120 -146Q134 -169 156 -183T206 -197Q228 -197 246 -182T278 -143T304 -90T324 -31T337 23T345 64Q352 107 355 150T358 236V257Q351 232 338 209T306 167T264 138T213 127Q162 127 127 156T71
228T40 320T30 410Q30 444 35 480T54 549T87 612T136 663Q152 674 170 681T209 689H214Q261 688 295 664T354 601T394 515T419 419T431 325T435 245Z" />
<glyph unicode=":" glyph-name="colon" horiz-adv-x="157" d="M126 24Q126 14 123 3T114 -17T99 -31T78 -37Q66 -37 58 -31T44 -16T35 5T32 26Q32 36 35 46T44 66T59 80T80 86Q92 86 100 80T114 65T123 45T126 24ZM126 238Q126 228 123 217T114 197T99 183T78
177Q66 177 58 183T44 198T35 218T32 239Q32 249 35 260T44 280T59 294T80 300Q92 300 100 294T114 279T123 259T126 238Z" />
<glyph unicode=";" glyph-name="semicolon" horiz-adv-x="157" d="M126 24Q126 -16 106 -57T59 -128Q64 -111 66 -95T69 -62Q69 -56 69 -48T66 -34Q48 -28 40 -10T32 26Q32 36 35 46T44 66T59 80T80 86Q91 86 99 80T114 65T123 45T126 24ZM126 238Q126 228 123
217T114 197T99 183T78 177Q66 177 58 183T44 198T35 218T32 239Q32 249 35 260T44 280T59 294T80 300Q92 300 100 294T114 279T123 259T126 238Z" />
<glyph unicode="&lt;" glyph-name="less" horiz-adv-x="500" d="M468 24Q468 13 457 13Q456 13 427 24T353 53T258 90T160 129T81 161T39 178Q32 180 32 188Q32 196 40 199Q48 201 80 211T158 236T253 266T346 295T417 318T447 327Q458 327 458 317Q460 305 461
292T463 267Q463 259 455 256L119 170L461 35Q468 32 468 24Z" />
<glyph unicode="=" glyph-name="equal" horiz-adv-x="474" d="M442 106Q442 95 432 95L43 86Q32 86 32 97Q32 102 35 105T43 109L431 117Q442 117 442 106ZM442 227Q442 216 432 216L43 208Q32 208 32 219Q32 230 43 230L431 238Q442 238 442 227Z" />
<glyph unicode="&gt;" glyph-name="greater" horiz-adv-x="500" d="M468 188Q468 185 467 182T461 178Q453 175 420 162T340 130T243 91T147 53T74 25T43 13Q32 13 32 24Q32 32 39 35L381 170L45 256Q37 259 37 267Q37 279 38 292T42 317Q42 327 53 327Q54 327
82 318T153 296T246 266T342 236T419 212T460 199Q468 196 468 188Z" />
<glyph unicode="?" glyph-name="question" horiz-adv-x="294" d="M153 24Q153 14 150 3T141 -17T126 -31T106 -37Q94 -37 86 -31T72 -16T63 5T60 26Q60 36 63 46T72 66T87 80T108 86Q120 86 128 80T142 65T150 45T153 24ZM322 641Q322 585 307 547T270 478T222
422T173 367T136 301T121 210Q121 193 122 178T126 146V144Q126 135 117 133Q111 131 104 130T91 128Q80 128 80 140Q80 185 90 237T124 331Q133 348 144 363T167 395Q205 445 227 507T250 633Q250 657 247 684T236 737T216 786T186 828Q172 842 155 851T118 860Q87
860 59 851T10 823T-23 779T-36 720Q-36 705 -33 690T-23 663T-3 643T27 635Q47 635 62 643T86 673Q88 677 88 681T89 689Q92 700 100 700Q105 700 108 697T111 689Q111 653 85 633T26 613Q3 613 -13 622T-39 648T-53 683T-58 723Q-58 760 -44 789T-5 839T51 871T118
882H121Q140 882 160 878T197 865Q233 850 257 827T295 775T316 711T322 641Z" />
<glyph unicode="@" glyph-name="at" horiz-adv-x="595" d="M387 117Q386 130 386 142T385 168Q373 173 356 174T326 176Q315 176 299 174T269 165T244 150T233 125Q233 113 239 106T256 94T277 87T298 85Q324 85 346 92T387 117ZM564 194Q564 171 558 141T540
85T507 40T456 21Q425 21 411 43T391 91Q383 85 371 80T346 71T320 65T297 63Q281 63 259 65T216 74T181 95T167 132Q167 157 186 170T231 190T284 197T329 198Q342 198 357 196T385 191V206Q385 230 382 252T368 291T341 318T295 329Q285 329 274 327T252 321T236
308T230 285Q230 268 238 262T256 255T274 252T282 241Q282 230 271 230Q259 230 245 233T218 243T197 260T189 286Q189 306 200 318T227 338T261 348T295 351Q339 351 366 332T408 284T428 218T434 146Q434 142 434 130T437 104T444 80T454 69Q463 69 469 86T478
126T482 168T484 194Q484 249 469 300Q460 329 445 357T408 407T359 444T298 458Q265 458 238 444T189 408T152 357T127 300Q119 274 115 248T111 194Q111 168 115 142T127 89Q136 61 151 33T188 -18T237 -55T298 -69Q301 -69 303 -70Q348 -69 384 -54T454 -10Q457
-7 461 -7Q470 -7 470 -17Q470 -22 467 -25Q435 -55 391 -71T303 -90Q301 -90 301 -90T298 -91Q290 -91 282 -90T265 -88Q213 -80 170 -55T97 9T49 94T32 194Q32 246 49 293T96 379T170 442T265 476Q273 478 281 479T298 480Q306 480 314 479T330 476Q382 468 425
443T499 379T547 294T564 194Z" />
<glyph unicode="A" glyph-name="A" horiz-adv-x="363" d="M131 473L38 -75L267 -84L131 473ZM451 -232Q451 -241 441 -243L251 -265H250Q239 -267 239 -254Q239 -245 249 -243L304 -237L273 -107L35 -97L12 -229L85 -226Q96 -226 96 -237Q96 -248 86 -248L-72
-254Q-76 -254 -79 -251T-83 -243Q-83 -233 -72 -231L-10 -229L145 689Q147 698 156 698Q164 698 167 690L387 -227Q400 -225 413 -223T440 -221Q451 -221 451 -232Z" />
<glyph unicode="B" glyph-name="B" horiz-adv-x="446" d="M341 170Q341 203 338 238T325 308T300 374T258 428Q234 449 204 462T141 476H138L130 -237Q165 -227 192 -209T245 -162Q273 -130 291 -90T321 -5T336 84T341 170ZM334 579Q334 608 317 626T274 655T221
671T170 680Q162 680 155 680T140 679L138 498H147Q166 498 197 500T259 512T312 537T334 579ZM424 207Q424 112 401 26T329 -127T206 -232T27 -271Q21 -271 14 -270T7 -260Q7 -251 14 -250T27 -249Q52 -249 77 -246L29 672Q13 671 -10 668T-48 665Q-52 665 -56
667T-60 675Q-60 684 -50 687Q-32 691 -8 692T37 695Q69 699 101 699T165 699Q194 699 238 698T323 687T393 654T422 587Q422 556 405 536T363 505T308 488T254 480Q301 465 333 438T385 374T415 296T424 207Z" />
<glyph unicode="C" glyph-name="C" horiz-adv-x="427" d="M445 712L405 495Q404 486 394 486Q383 486 383 497Q383 502 385 516T391 548T398 582T403 605Q386 618 370 626T331 634Q275 634 235 604T167 528T123 430T98 332Q88 278 84 225T80 117Q80 79 83 31T96
-66T125 -158T175 -230Q189 -243 206 -251T243 -260H250Q265 -261 279 -258T308 -248Q307 -245 302 -233T292 -208T283 -184T278 -171Q278 -160 289 -160Q296 -160 299 -167Q301 -171 306 -184T319 -215T334 -252T350 -289T361 -318T366 -331Q366 -336 363 -339T354
-342Q348 -342 344 -335L317 -268Q284 -283 250 -283H242Q191 -280 154 -257T91 -196T49 -113T23 -19T11 77T7 162Q7 211 10 264T23 371T47 474T85 569Q99 596 118 621T161 665T213 696T274 708Q316 708 350 690T408 637L423 716Q425 725 434 725Q445 725 445 714V712Z"
/>
<glyph unicode="D" glyph-name="D" horiz-adv-x="465" d="M365 318Q365 357 360 398T342 479T309 554T256 616Q231 637 204 650T145 668L135 -231Q185 -217 221 -182T284 -100T325 2T350 114T362 223T365 318ZM453 319Q453 255 446 189T420 59T370 -61T291 -166Q238
-217 170 -242T30 -267Q22 -267 11 -267T-1 -255Q-1 -245 10 -245T29 -245Q53 -245 78 -242L46 674Q26 674 8 672T-31 670Q-36 670 -39 672T-43 680Q-43 691 -33 692Q-19 695 -1 695T33 695Q61 695 89 695T145 690Q146 691 148 691Q156 691 163 689T176 685Q227
673 270 657T351 604Q381 576 400 543T431 473T448 397T453 319Z" />
<glyph unicode="E" glyph-name="E" horiz-adv-x="421" d="M435 -220Q435 -230 425 -230L24 -256Q19 -257 16 -254T12 -245Q12 -236 23 -234L105 -229L64 665L-16 661Q-21 660 -24 663T-28 671Q-28 676 -25 679T-17 683L417 704Q428 704 428 693L427 575Q425 564
415 564Q410 564 408 567T404 576L396 681L175 670L168 -43L338 -31H339Q344 -31 347 -34T350 -43Q350 -53 339 -53L168 -65L166 -225L407 -209L417 -129Q417 -119 428 -119Q439 -119 439 -130L435 -220Z" />
<glyph unicode="F" glyph-name="F" horiz-adv-x="406" d="M423 571Q421 560 411 560Q406 560 404 563T400 572L392 677L167 668L160 -28L334 -23Q345 -23 345 -34Q345 -45 335 -45L160 -51L158 -230L235 -226Q246 -226 246 -236Q246 -248 236 -248L16 -260Q11
-261 8 -258T4 -250Q4 -240 15 -238L97 -234L56 664L-16 661Q-21 661 -24 663T-28 671Q-28 683 -17 683L413 700Q424 700 424 689L423 571Z" />
<glyph unicode="G" glyph-name="G" horiz-adv-x="454" d="M462 -29Q462 -41 451 -41H374V-54Q375 -90 368 -125T344 -190T299 -237T228 -255Q186 -255 153 -231T96 -166T54 -76T27 24T12 120T7 197Q7 246 10 299T23 405T47 509T85 604Q99 631 118 656T161 700T213
730T274 742Q316 742 350 724T408 671L423 751Q425 760 434 760Q445 760 445 749V746L405 529Q403 520 394 520Q383 520 383 531Q383 536 385 551T391 583T398 617T403 639Q386 653 370 660T331 668Q276 668 236 644T168 581T123 490T96 387T83 283T80 192Q80 151
82 97T94 -11T120 -116T165 -199Q171 -207 182 -217T204 -230Q216 -233 228 -233Q260 -233 280 -219T311 -183T327 -134T332 -81Q332 -70 332 -61T330 -41H240Q229 -41 229 -29Q229 -18 240 -18H451Q462 -18 462 -29Z" />
<glyph unicode="H" glyph-name="H" horiz-adv-x="474" d="M503 690Q503 685 500 682T492 678L440 674L379 -225Q393 -224 406 -223T433 -221Q444 -221 444 -232Q444 -241 434 -243L265 -258H264Q259 -259 256 -256T253 -247Q253 -238 263 -236L333 -230L334 -66L145
-68L144 -220Q155 -219 167 -218T191 -216Q202 -216 202 -227Q202 -238 192 -238L24 -254H23Q12 -254 12 -243Q12 -232 22 -232L83 -226L42 676L-26 673Q-31 673 -34 675T-38 683Q-38 695 -27 695L204 706Q215 706 215 695Q215 685 205 683L153 681L146 -45L335
-43L341 668L277 664Q273 663 269 666T265 674Q265 684 276 686L491 700Q495 701 499 698T503 690Z" />
<glyph unicode="I" glyph-name="I" horiz-adv-x="229" d="M227 695Q227 685 217 683L161 680L144 -222Q158 -220 173 -218T203 -216Q214 -216 214 -227Q214 -236 204 -238L28 -258H27Q22 -258 19 -255T15 -247Q15 -236 25 -236L91 -228L62 673L-6 669Q-11 668
-14 671T-18 679Q-18 684 -16 687T-8 691L215 706Q220 706 223 703T227 695Z" />
<glyph unicode="J" glyph-name="J" horiz-adv-x="372" d="M360 695Q360 684 350 683L294 679Q299 537 302 397T306 115Q306 85 304 46T295 -36T275 -119T241 -192T190 -244T117 -264Q86 -264 60 -254T14 -224T-17 -178T-28 -119Q-28 -105 -25 -91T-14 -66T6 -47T34
-39Q52 -39 65 -48T86 -75Q86 -77 87 -81T89 -88Q89 -93 87 -97T80 -101Q72 -101 69 -95T63 -82T54 -68T34 -61Q23 -61 16 -67T3 -81T-4 -100T-6 -119Q-6 -143 2 -164T25 -203T60 -230T106 -240Q136 -240 156 -222T190 -174T210 -109T220 -38T224 29T225 79Q225
134 222 189T217 299Q209 487 199 670L135 665Q130 664 127 667T123 675Q123 685 133 687L348 706Q353 706 356 703T360 695Z" />
<glyph unicode="K" glyph-name="K" horiz-adv-x="479" d="M577 -207Q577 -217 567 -217L431 -239H429Q422 -239 420 -233L190 220L158 157L156 -224Q171 -222 189 -219T222 -216Q233 -216 233 -227Q233 -237 223 -239L48 -259H47Q36 -259 36 -248Q36 -237 46 -237L103
-230L49 662L-6 659Q-11 659 -14 662T-18 670Q-18 681 -8 681L219 694Q224 695 227 692T231 684Q231 674 220 672L160 669L158 206L400 676Q384 674 367 672T334 669Q323 669 323 680Q323 689 333 691L506 709H507Q518 709 518 698Q518 687 508 687L426 678L241
318L480 -209Q487 -208 499 -206T524 -201T548 -197T566 -195Q571 -195 574 -198T577 -207Z" />
<glyph unicode="L" glyph-name="L" horiz-adv-x="434" d="M417 -227Q417 -236 407 -238L14 -262Q2 -262 2 -250Q2 -241 12 -239L99 -234L62 665Q42 663 23 661T-17 659Q-22 659 -25 662T-28 671Q-28 680 -18 682L241 701H242Q247 702 250 699T253 690Q253 681
243 679L171 674L153 -231L386 -217L400 -99Q400 -88 411 -88Q416 -88 419 -91T422 -100L417 -227Z" />
<glyph unicode="M" glyph-name="M" horiz-adv-x="657" d="M695 695Q695 684 685 684L594 675L550 -137Q558 -136 569 -135T593 -131T617 -128T636 -126Q641 -126 643 -129T646 -138Q646 -148 637 -148L431 -176H429Q424 -176 421 -173T418 -164Q418 -155 428 -153L502
-144L500 569L321 -246Q319 -254 310 -254Q302 -254 300 -246L101 599L105 -139L190 -159Q198 -161 198 -169Q198 -180 187 -180Q185 -180 171 -177T137 -170T94 -160T49 -150T12 -141T-9 -136Q-18 -134 -18 -126Q-18 -114 -7 -114Q-5 -114 8 -117T36 -123T65 -130T83
-134L79 672Q75 671 62 668T35 662T8 656T-7 653Q-18 653 -18 664Q-18 673 -9 675Q-3 677 23 683T79 695T132 707T160 713Q169 713 171 704L338 -64L502 680Q504 689 512 689L683 706H684Q695 706 695 695Z" />
<glyph unicode="N" glyph-name="N" horiz-adv-x="467" d="M485 658Q485 649 475 647L408 642L395 -216Q395 -227 384 -227Q376 -227 374 -220L80 599L114 -110Q131 -109 150 -107T187 -105Q198 -105 198 -116Q198 -125 187 -127L14 -141H13Q8 -141 5 -138T2 -129Q2
-120 12 -118L91 -112L54 669Q40 667 18 663T-18 658Q-23 658 -25 661T-28 670Q-28 674 -25 677T-19 680L121 701H123Q130 701 133 694L376 12L385 640Q368 638 351 636T316 634Q305 634 305 645Q305 656 315 656L473 669H474Q479 670 482 667T485 658Z" />
<glyph unicode="O" glyph-name="O" horiz-adv-x="420" d="M365 231Q365 272 362 329T351 446T326 559T283 646Q272 660 258 669T227 678Q207 678 190 661T160 618T136 559T118 495T107 438T100 398Q94 354 92 311T89 225Q89 183 91 143T99 61Q101 46 105 21T115
-33T131 -91T154 -143T185 -182T224 -197Q244 -197 260 -182T291 -141T315 -86T333 -27T345 27T352 66Q359 108 362 148T365 231ZM403 231Q403 146 388 63Q385 45 379 17T362 -43T339 -106T308 -163T270 -204T224 -219H219H218Q174 -217 142 -192T88 -128T52 -41T30
55T20 149T17 225Q17 257 19 304T30 403T51 507T88 601T143 671T221 701L223 700L227 701Q248 702 266 691T299 665Q332 630 352 575T384 459T399 337T403 231Z" />
<glyph unicode="P" glyph-name="P" horiz-adv-x="449" d="M376 600Q376 628 355 646T303 676T241 692T188 697Q181 697 175 697T161 696L159 522H162Q180 522 216 524T287 535T349 558T376 600ZM467 608Q467 580 451 561T408 530T349 512T284 504T223 501T175
500H159L151 -208L228 -199Q233 -198 237 -200T241 -208Q241 -220 231 -221L31 -245Q26 -246 22 -244T18 -236Q18 -224 28 -223L102 -214L54 691Q37 689 21 688T-13 685Q-21 684 -29 683T-46 682Q-50 682 -54 684T-58 692Q-58 703 -48 704Q-31 708 -13 708T22 710Q64
714 106 714T191 719H194Q213 721 240 721T297 718T358 709T412 689T452 656T467 608Z" />
<glyph unicode="Q" glyph-name="Q" horiz-adv-x="420" d="M365 231Q365 272 362 329T351 444T327 556T285 644Q274 658 260 668T227 678Q206 678 189 660T158 614T134 552T116 484T105 424T98 382Q89 304 89 225Q89 144 98 66Q100 51 104 25T114 -30T131 -89T154
-143T184 -182T224 -197Q226 -197 228 -197T233 -196Q234 -187 234 -179T235 -161Q235 -146 230 -138T216 -125T196 -119T173 -117Q168 -117 165 -115T161 -107Q161 -98 167 -97T180 -95Q197 -95 213 -98T243 -110T266 -131T276 -164Q301 -131 318 -81T345 26T360
136T365 231ZM403 231Q403 202 400 165T391 86T375 3T351 -78T318 -147T275 -199Q274 -213 274 -226T273 -254Q273 -268 274 -285T282 -316T299 -341T329 -351Q344 -351 352 -346T365 -335T373 -323T382 -318Q393 -318 393 -329V-332Q388 -352 368 -363T329 -374Q302
-374 283 -362T253 -332T236 -290T230 -243Q230 -237 230 -231T231 -219H219H218Q174 -218 142 -193T88 -129T52 -42T30 56T20 149T17 225Q17 256 19 303T30 402T52 507T88 602T143 672T221 701L223 700L227 701Q248 702 266 692T298 666Q331 631 352 576T384 460T399
337T403 231Z" />
<glyph unicode="R" glyph-name="R" horiz-adv-x="479" d="M366 604Q366 632 345 650T293 680T231 696T178 701Q171 701 165 701T151 700L148 526H152Q170 526 206 528T277 539T339 562T366 604ZM522 -227Q522 -239 511 -239L293 -252Q288 -252 285 -249T281 -241Q281
-230 291 -230L391 -224Q393 -192 394 -160T396 -96Q396 -6 389 82T364 259Q358 290 349 322T324 383T288 437T237 478Q217 489 196 495T152 501H148L137 -226L207 -240Q216 -242 216 -251Q216 -262 205 -262Q202 -262 186 -259T147 -251T97 -241T46 -230T3 -221T-21
-216Q-30 -214 -30 -205Q-30 -194 -19 -194Q-16 -194 -1 -197T32 -204T66 -211T88 -216L44 695Q27 693 9 692T-26 689Q-34 688 -41 687T-56 686Q-60 686 -64 688T-68 696Q-68 707 -58 708Q-41 712 -23 712T12 714Q54 718 96 718T181 723H184Q203 725 230 725T287
722T348 713T403 693T442 660T457 612Q457 582 440 563T398 533T345 517T293 510Q340 480 368 425T410 307T429 179T434 64Q434 -8 429 -79T414 -222L510 -217Q515 -217 518 -219T522 -227Z" />
<glyph unicode="S" glyph-name="S" horiz-adv-x="349" d="M334 510Q333 501 321 501Q316 501 314 505T312 514L326 611Q310 620 295 628T261 637Q250 637 236 633T212 625Q185 613 167 595T138 554T121 505T116 451Q116 389 132 337T172 237T225 147T278 62T319
-25T335 -118Q335 -145 329 -168T310 -208T275 -236T225 -246Q198 -246 174 -235T131 -204T101 -159T90 -107Q90 -93 93 -79T104 -52T123 -33T151 -25Q173 -25 188 -38T209 -72V-75Q209 -86 198 -86Q192 -86 189 -80T182 -67T172 -53T151 -47Q140 -47 133 -53T121
-68T114 -87T112 -107Q112 -129 121 -150T146 -187T182 -214T225 -224Q267 -224 288 -200T310 -134Q310 -90 289 -45T235 49T165 146T95 247T42 352T20 461Q20 508 35 552T83 631Q107 658 140 676T212 695Q247 695 277 682T330 642L335 678Q336 683 339 685T348
687Q353 687 355 683T357 675L334 510Z" />
<glyph unicode="T" glyph-name="T" horiz-adv-x="401" d="M404 577Q404 567 393 567Q382 567 382 578L379 689L248 685L230 -198Q247 -196 265 -195T301 -193Q312 -193 312 -204Q312 -215 301 -215L82 -231H81Q70 -231 70 -220Q70 -209 81 -209L177 -202L149 682L22
678L19 565Q17 554 8 554Q-2 554 -4 565L-8 688Q-8 699 3 699L398 712Q403 713 406 710T409 701L404 577Z" />
<glyph unicode="U" glyph-name="U" horiz-adv-x="454" d="M504 645Q504 634 494 633L406 623V61Q406 38 404 7T394 -57T376 -123T347 -180T306 -222T251 -238Q200 -238 167 -211T114 -142T84 -45T71 63T68 166T69 248Q69 357 70 463T74 678L12 674Q7 673 4 676T0
684Q0 694 10 696L225 712Q230 712 233 709T237 701Q237 690 227 690L169 685Q166 598 163 513T157 339Q155 281 153 224T151 107V101V91Q151 35 154 -22Q155 -41 158 -71T168 -132T190 -186T230 -215Q235 -216 239 -216T247 -216Q290 -216 317 -185T359 -109T379
-17T384 61V621L306 613Q301 612 297 615T293 623Q293 633 303 635L492 655Q496 655 500 653T504 645Z" />
<glyph unicode="V" glyph-name="V" horiz-adv-x="412" d="M460 660Q460 655 458 652T450 648L387 644L223 -214Q221 -223 212 -223Q203 -223 201 -214L16 683Q3 681 -10 680T-37 679Q-48 679 -48 690Q-48 701 -38 701L177 717H178Q183 717 186 714T189 705Q189
696 178 694L107 689L234 -37L364 642L288 637Q284 637 281 639T277 647Q277 659 287 659L448 670Q453 670 456 668T460 660Z" />
<glyph unicode="W" glyph-name="W" horiz-adv-x="613" d="M666 565Q666 556 656 554L581 547L433 -209Q431 -218 422 -218Q413 -218 411 -208L297 464L171 -220Q169 -229 159 -229Q149 -229 149 -219L50 570L2 575Q-8 577 -8 587Q-8 592 -5 595T3 597H4L186 577Q196
575 196 565Q196 554 185 554Q170 554 152 557T118 562L192 19L318 703Q320 712 329 712Q338 712 340 702L448 -14L558 545Q540 543 518 540T479 537Q468 537 468 548Q468 559 478 559L654 577H655Q666 577 666 565Z" />
<glyph unicode="X" glyph-name="X" horiz-adv-x="389" d="M447 -163Q447 -172 438 -174Q433 -175 417 -179T379 -188T333 -198T287 -209T252 -217T235 -220Q224 -220 224 -209Q224 -202 233 -198L295 -184L178 166L73 -153L138 -177Q146 -179 146 -187Q146 -198
135 -198Q134 -198 122 -194T91 -184T52 -170T13 -156T-20 -144T-38 -138Q-45 -135 -45 -127Q-45 -116 -34 -116Q-32 -116 -20 -120T7 -129T35 -140T52 -146L167 201L10 670Q-2 668 -19 664T-47 660Q-52 660 -55 663T-58 672Q-58 681 -49 683L146 715H148Q153 716
156 713T159 704Q159 695 150 693L109 686L212 336L315 647Q296 645 277 643T238 640Q227 640 227 651Q227 660 237 662L423 679H425Q430 679 432 676T435 667Q435 657 425 657L339 649L223 299L360 -169Q364 -168 375 -166T399 -160T423 -155T436 -152Q447 -152
447 -163Z" />
<glyph unicode="Y" glyph-name="Y" horiz-adv-x="364" d="M452 649Q452 638 442 638L371 632L276 332Q269 310 263 292T250 257T239 223T229 182Q226 164 226 149T226 120T228 91T229 57L227 -192Q244 -190 268 -187T308 -183Q319 -183 319 -194Q319 -203 309
-205L99 -229H98Q87 -229 87 -218Q87 -207 97 -207L157 -200V159Q157 159 151 180T135 235T111 313T83 404T56 496T31 579T12 642T2 674Q-14 672 -38 669T-77 665Q-88 665 -88 676Q-88 687 -78 687L152 715H153Q164 715 164 704Q164 694 154 692L85 684L220 227L347
629Q329 627 310 625T273 623Q262 623 262 634Q262 645 272 645L440 660H441Q446 660 449 657T452 649Z" />
<glyph unicode="Z" glyph-name="Z" horiz-adv-x="446" d="M484 703Q484 702 467 665T421 568T355 431T279 273T201 112T131 -33T78 -144T50 -201L373 -188L390 -47Q392 -37 402 -37Q407 -37 410 -40T413 -48L405 -198Q405 -209 394 -209L-16 -226Q-21 -227 -24
-224T-28 -215Q-28 -214 -12 -177T31 -80T92 57T163 215T236 377T301 522T351 633T377 691L73 685L51 542Q49 532 40 532Q29 532 29 543V544L39 697Q39 707 49 707L472 714Q484 714 484 703Z" />
<glyph unicode="[" glyph-name="bracketleft" horiz-adv-x="324" d="M348 -284Q348 -293 338 -295L34 -313Q29 -313 26 -310T22 -302Q22 -291 33 -291L115 -286L74 680L-6 677Q-11 677 -14 680T-18 688Q-18 699 -7 699L330 712Q341 712 341 701L340 584Q340 579
337 576T328 573Q317 573 317 584L319 689L185 684L176 -282L327 -273L330 -194Q330 -183 341 -183Q346 -183 349 -186T352 -195L348 -284Z" />
<glyph unicode="\" glyph-name="backslash" horiz-adv-x="567" d="M535 -208Q535 -219 524 -219Q519 -219 507 -219T491 -211L33 711Q32 712 32 715Q32 720 35 723T43 727Q59 727 77 724T111 719Q117 717 120 712L534 -203Q535 -205 535 -208Z" />
<glyph unicode="]" glyph-name="bracketright" horiz-adv-x="324" d="M352 -289Q352 -300 341 -300L4 -313Q-1 -313 -4 -310T-8 -302L-6 -184Q-6 -173 6 -173Q10 -173 13 -176T16 -185L15 -290L148 -285L158 681L7 672L4 593Q4 582 -7 582Q-12 582 -15 585T-18
594L-14 683Q-14 694 -4 694L300 712Q305 712 308 709T312 701Q312 690 301 690L219 685L260 -281L340 -278Q345 -278 348 -281T352 -289Z" />
<glyph unicode="^" glyph-name="asciicircum" horiz-adv-x="459" d="M427 168Q427 157 416 157Q409 157 405 164L239 615L116 179Q113 171 105 171Q91 171 74 173T42 178Q32 180 32 189Q32 190 39 211T57 266T84 345T115 435T146 527T175 610T197 673T208 706Q211
714 218 714Q226 714 229 707Q233 697 249 654T287 551T333 425T379 302T413 208T427 168Z" />
<glyph unicode="_" glyph-name="underscore" horiz-adv-x="584" d="M552 10Q552 5 549 2T541 -2L43 -10Q32 -10 32 1Q32 12 43 12L541 21Q552 21 552 10Z" />
<glyph unicode="`" glyph-name="grave" horiz-adv-x="354" d="M264 469Q264 465 260 461Q256 457 247 447T231 436Q226 436 223 439T217 445L94 571Q90 574 90 579Q90 583 94 587L140 625Q143 628 147 628Q153 628 156 623L262 475Q264 471 264 469Z" />
<glyph unicode="a" glyph-name="a" horiz-adv-x="316" d="M223 478L212 379L201 478L142 425L197 485L145 495L197 505L142 565L201 511L212 611L223 511L282 565L227 505L279 495L227 485L282 425L223 478ZM225 85Q211 89 197 90T168 92Q157 92 141 90T111 81T86
66T75 41Q75 29 81 22T98 10T119 4T140 2Q162 2 184 7T224 28L225 85ZM324 -8Q324 -19 314 -20L235 -30Q229 -31 226 -28T223 -19T222 -9T223 0Q207 -9 182 -15T139 -21Q123 -21 101 -19T58 -10T23 11T9 48Q9 73 28 86T73 106T126 113T171 114Q183 114 198 113T225
108V125Q225 147 222 168T209 207T182 234T139 245Q129 245 118 243T96 236T80 223T73 201Q73 184 81 178T98 170T116 167T124 157Q124 152 121 149T113 146Q101 146 87 149T62 160T43 177T35 202Q35 221 44 233T69 253T101 264T133 267Q174 267 202 254T248 218T273
162T281 91Q281 68 279 44T275 -3L312 2Q316 2 320 0T324 -8Z" />
<glyph unicode="b" glyph-name="b" horiz-adv-x="372" d="M293 62Q293 83 285 98T262 122T229 135T193 140Q168 140 144 133T101 107Q102 89 102 71T104 36Q125 18 153 12T207 5Q222 5 237 7T265 15T285 32T293 62ZM369 68Q369 43 352 27T311 0T259 -14T213 -18Q190
-18 158 -11T106 8Q106 -2 107 -11T108 -30Q108 -41 97 -41Q95 -41 80 -37T47 -27T13 -17T-7 -11Q-15 -8 -15 0Q-15 11 -4 11Q-3 11 4 9T21 5T37 0T48 -4Q48 24 48 51T49 106Q49 196 46 286Q44 341 41 395T34 504L28 573Q27 582 26 591T25 609Q25 622 36 622H164Q175
622 175 611Q175 599 164 599H104Q102 502 101 406T100 212Q100 192 100 174T101 135Q124 151 148 156T200 162Q221 162 250 158T305 143T350 114T369 68Z" />
<glyph unicode="c" glyph-name="c" horiz-adv-x="281" d="M142 448L131 349L120 448L61 395L116 455L64 465L116 475L61 535L120 481L131 581L142 481L201 535L146 475L198 465L146 455L201 395L142 448ZM277 288Q277 287 275 283L250 229Q246 223 240 223Q238
223 234 225Q223 229 213 231T189 233Q167 233 147 224T110 199T84 163T74 120Q74 72 104 42T184 11Q197 11 207 15T226 26T239 36T248 41Q259 41 259 30Q259 26 256 23Q250 14 239 7T214 -6T187 -14T163 -17Q136 -17 110 -7T63 22T29 65T16 118Q16 152 31 177T72
220T128 246T189 255Q200 255 211 254T233 249L247 292Q249 298 254 298T265 299Q270 299 273 296T277 288Z" />
<glyph unicode="d" glyph-name="d" horiz-adv-x="374" d="M272 180Q255 197 231 205T181 213Q163 213 145 209T113 195T90 171T81 135Q81 117 88 106T108 88T136 79T166 77Q193 77 221 84T270 109Q271 126 271 144T272 180ZM389 73Q389 65 381 62Q377 61 361 56T327
46T294 36T277 31Q272 31 269 34T266 43Q266 52 267 61T268 80Q259 75 246 71T218 63T189 57T164 55Q145 55 118 58T65 72T23 98T5 140Q5 168 23 186T68 215T124 230T174 235Q200 235 225 230T273 208Q274 227 274 246T274 285Q274 382 273 478T270 672H210Q198
672 198 683Q198 694 210 694H338Q349 694 349 682Q349 673 348 664T346 646L340 577Q331 468 328 358Q325 270 325 179Q325 151 325 124T326 69Q329 70 337 72T353 77T369 82T378 84Q389 84 389 73Z" />
<glyph unicode="e" glyph-name="e" horiz-adv-x="261" d="M186 186Q186 196 185 211T180 239T167 263T144 273Q130 273 120 259T102 225T90 186T83 156L185 164Q186 169 186 175T186 186ZM256 158Q256 148 245 146L80 133Q79 120 79 108T78 81Q78 66 80 43T88
-2T108 -41T142 -57Q158 -57 168 -52T185 -42T196 -31T204 -26Q215 -26 215 -37Q215 -40 214 -42Q210 -51 202 -58T183 -69T162 -76T142 -79Q110 -79 88 -61T51 -16T29 42T22 99Q22 126 28 160T49 224T87 275T144 296Q188 296 213 268T249 201Q251 190 253 180T256
158Z" />
<glyph unicode="f" glyph-name="f" horiz-adv-x="216" d="M344 558Q344 533 327 515T285 497Q259 497 245 512T231 552Q231 563 242 563Q250 563 251 556T254 541T262 526T285 519Q300 519 307 531T314 558Q314 578 306 591T284 613T254 624T220 628Q187 628 164
613T125 573T103 518T96 460Q96 432 100 402T109 344Q116 293 122 242T136 139L185 146Q189 147 193 144T197 136Q197 125 188 124L139 117Q144 83 149 49T159 -20L216 -12Q221 -11 225 -13T229 -21Q229 -33 219 -34L47 -58Q42 -58 38 -56T34 -48Q34 -37 44 -36L106
-27Q100 7 94 41T81 110L26 102Q22 102 18 104T14 112Q14 123 24 124L77 132Q69 178 62 223T47 316Q42 345 38 375T33 434Q33 480 44 519T77 588T135 633T220 650Q242 650 264 645T304 629T333 601T344 558Z" />
<glyph unicode="g" glyph-name="g" horiz-adv-x="333" d="M103 378L92 279L81 378L22 325L77 385L25 395L77 405L22 465L81 411L92 511L103 411L162 465L107 405L159 395L107 385L162 325L103 378ZM249 149Q249 184 227 201T171 219Q137 219 116 197T94 140Q94
108 113 93T164 77Q180 77 195 82T223 96T242 118T249 149ZM359 -112Q359 -135 347 -152T317 -182Q291 -202 256 -211T188 -220Q169 -220 143 -217T92 -205T50 -180T33 -138Q33 -113 50 -100T91 -86Q114 -86 126 -100T139 -138Q139 -151 128 -151Q120 -151 119
-145T116 -130T110 -115T91 -108Q63 -108 63 -138Q63 -157 77 -169T112 -187T153 -196T188 -198Q202 -198 224 -195T269 -184T306 -163T322 -131Q322 -112 302 -100T252 -80T186 -64T120 -47T69 -24T49 12Q49 32 60 45T88 68Q63 77 41 95T18 143Q18 160 26 174T48
200T77 219T107 232Q139 241 171 241Q206 241 237 232Q240 235 247 243T262 260T277 275T289 282Q294 282 302 278T310 268Q310 260 306 257L263 223Q286 213 303 196T321 151Q321 124 305 106T264 76T212 59T164 54Q155 54 146 55T127 58Q117 55 105 49T93 30Q93
23 105 18T133 8T164 2T184 -2Q207 -7 237 -13T294 -31T340 -62T359 -112Z" />
<glyph unicode="h" glyph-name="h" horiz-adv-x="288" d="M297 12Q297 7 295 4T287 0L167 -14Q162 -15 158 -13T154 -5Q154 7 164 8L197 11Q199 60 200 108T201 204Q201 210 200 223T196 248T187 271T171 281Q144 281 127 256T100 197T86 129T82 74L81 26L127
30Q132 31 135 28T139 20Q139 9 129 8L-11 -4Q-16 -4 -19 -2T-23 6Q-23 18 -13 18L44 23L24 645L-37 636Q-42 635 -46 637T-50 645Q-50 650 -48 653T-41 658L82 676Q95 678 95 665L85 224Q91 238 98 252T116 278T140 297T171 304Q198 304 215 294T243 266T258 228T262
183Q262 142 258 101T251 18L284 22Q289 22 293 20T297 12Z" />
<glyph unicode="i" glyph-name="i" horiz-adv-x="174" d="M100 317L89 218L78 317L19 263L74 324L22 334L74 343L19 404L78 350L89 449L100 350L159 404L104 343L156 334L104 324L159 263L100 317ZM187 12Q187 3 177 1L37 -12H36Q25 -12 25 -1Q25 10 35 10L82
15L69 173Q58 171 46 170T23 168Q12 168 12 179Q12 190 22 190Q31 191 45 193T73 196T101 199T122 201Q133 201 133 190L131 19Q142 20 153 21T176 23Q187 23 187 12Z" />
<glyph unicode="j" glyph-name="j" horiz-adv-x="167" d="M79 373L68 274L57 373L-2 319L53 380L1 390L53 399L-2 460L57 406L68 505L79 406L138 460L83 399L135 390L83 380L138 319L79 373ZM127 -66Q127 -110 120 -153T94 -231T42 -287T-43 -309Q-66 -309 -89
-304T-132 -286T-164 -256T-176 -210Q-176 -181 -155 -165T-107 -149Q-97 -149 -87 -154T-70 -166T-57 -183T-52 -202Q-52 -213 -63 -213Q-69 -213 -72 -207T-79 -192T-89 -178T-107 -171Q-124 -171 -135 -182T-146 -210Q-146 -228 -137 -242T-114 -266T-83 -281T-50
-287Q-16 -287 7 -271T44 -231T65 -177T71 -119Q71 -32 66 54T53 227L10 221Q6 221 2 223T-2 231Q-2 242 7 243L101 256Q111 257 113 245Q115 238 115 231T115 215L119 142Q122 90 124 38T127 -66Z" />
<glyph unicode="k" glyph-name="k" horiz-adv-x="327" d="M353 22Q353 15 347 12Q343 10 331 4T306 -9T281 -21T266 -26Q260 -26 257 -21L114 202L100 186L98 10L136 12Q141 13 144 10T148 2Q148 -3 145 -6T137 -10L5 -18Q1 -18 -2 -15T-6 -7Q-6 4 4 4L61 8L34
661Q28 660 20 659T2 655T-15 652T-29 650Q-40 650 -40 661Q-40 670 -31 672L92 695H94Q105 695 105 684L100 219L233 362Q226 361 219 360T204 359Q192 359 192 370Q192 380 203 382L323 391H324Q335 391 335 380Q335 369 325 369L266 364L147 236L305 17Q308
18 313 20T324 26T335 31T342 33Q353 33 353 22Z" />
<glyph unicode="l" glyph-name="l" horiz-adv-x="155" d="M168 -37Q168 -47 158 -49L26 -64H25Q20 -65 17 -62T14 -54Q14 -44 23 -42L69 -37L50 624Q37 622 18 619T-13 615Q-18 615 -21 618T-24 627Q-24 637 -14 637L113 656H115Q120 656 123 653T125 645L106
-32Q118 -31 131 -29T156 -26Q161 -26 164 -29T168 -37Z" />
<glyph unicode="m" glyph-name="m" horiz-adv-x="585" d="M399 512L388 413L377 512L318 458L373 519L321 529L373 538L318 599L377 545L388 644L399 545L458 599L403 538L455 529L403 519L458 458L399 512ZM593 10Q593 5 589 3T581 0L414 22Q404 23 404 34Q404
39 408 42T417 44L472 37Q483 67 491 104T499 173Q499 190 497 206T487 235T468 255T435 263Q407 263 389 250T360 216T345 171T340 123Q340 88 338 53T334 -17H388Q393 -17 396 -20T400 -28Q400 -39 389 -39L220 -41Q215 -41 212 -38T208 -30Q208 -19 219 -19L285
-18Q285 14 286 46T287 110Q287 127 287 151T281 199T263 238T226 255Q209 255 192 245Q177 235 167 221T151 189T143 155T140 120V37L185 39Q190 39 193 36T197 28Q197 17 186 17L9 9Q4 9 1 12T-3 20Q-3 30 8 32L103 35L67 250L-6 246Q-11 246 -14 249T-18 257Q-18
268 -8 268L125 276Q137 276 137 265L138 215Q151 241 173 259T226 278Q265 278 292 262T331 207Q343 241 370 263T435 285Q459 285 480 277T517 255T543 221T553 176Q553 138 542 101T514 31L583 22Q593 21 593 10Z" />
<glyph unicode="n" glyph-name="n" horiz-adv-x="358" d="M169 567L158 468L147 567L88 513L143 574L91 584L143 593L88 654L147 600L158 699L169 600L228 654L173 593L225 584L173 574L228 513L169 567ZM387 9Q387 4 384 1T376 -3L207 -5Q196 -5 196 6Q196 16
207 18H260Q263 50 265 82T267 147Q267 164 266 189T259 237T239 276T201 292Q183 292 167 281Q152 272 142 258T126 226T118 191T115 156V73L160 75Q165 75 168 73T172 65Q172 53 161 53L-16 46Q-21 46 -24 48T-28 56Q-28 68 -17 68L78 72L42 287L-31 283Q-36
282 -39 285T-43 293Q-43 303 -33 305L100 312Q112 312 112 301L113 252Q126 278 148 296T201 314Q238 314 262 304T300 275T321 229T327 168Q327 93 310 19L375 20Q380 20 383 17T387 9Z" />
<glyph unicode="o" glyph-name="o" horiz-adv-x="317" d="M198 404L187 305L176 404L117 350L172 411L120 421L172 430L117 491L176 437L187 536L198 437L257 491L202 430L254 421L202 411L257 350L198 404ZM243 166Q243 203 224 218T170 234Q136 234 110 216T83
159Q83 125 107 108T163 91Q195 91 219 112T243 166ZM306 164Q306 140 291 122T254 92T207 75T162 69Q141 69 115 74T65 90T27 119T11 165Q11 191 28 208T69 236T120 251T166 256Q186 256 210 251T256 234T291 206T306 164Z" />
<glyph unicode="p" glyph-name="p" horiz-adv-x="373" d="M293 245Q293 263 286 274T266 292T238 300T207 302Q180 302 153 296T104 271Q103 254 103 236T101 200Q119 182 143 175T193 167Q211 167 229 171T261 185T284 209T293 245ZM369 239Q369 212 351 194T306
165T250 150T200 145Q173 145 148 150T101 172Q100 152 100 134T100 95Q100 -3 102 -99T104 -294Q104 -307 91 -305L-32 -293Q-37 -293 -39 -290T-42 -281Q-42 -276 -38 -274T-30 -271L31 -277Q42 -157 47 -39T53 201Q53 229 53 256T51 312Q48 311 40 309T23 303T6
298T-4 296Q-15 296 -15 307Q-15 315 -7 318Q-3 319 13 324T47 334T80 344T97 349Q102 349 105 346T108 337Q108 327 107 318T105 299Q114 305 127 309T155 317T184 323T209 325Q228 325 255 322T308 308T351 282T369 239Z" />
<glyph unicode="q" glyph-name="q" horiz-adv-x="366" d="M271 144Q271 162 271 180T269 215Q248 233 220 239T165 246Q150 246 135 244T108 236T88 219T80 189Q80 168 88 153T111 129T144 116T180 111Q205 111 229 118T271 144ZM388 251Q388 240 377 240Q375
240 368 242T352 246T336 251T325 255Q324 227 324 200T324 145Q324 55 327 -35Q330 -139 339 -244Q341 -259 342 -274T345 -306Q346 -314 347 -322T348 -338Q348 -350 337 -350H213Q201 -350 201 -339Q201 -328 213 -328H269Q271 -236 272 -145T273 39Q273 59
273 77T272 116Q249 100 225 95T173 89Q152 89 123 93T68 108T23 137T4 183Q4 208 21 224T62 251T113 265T159 269Q171 269 185 267T215 262T243 254T267 243Q267 253 266 262T265 281Q265 286 268 289T276 293Q278 293 293 289T326 279T360 268T380 262Q388 259
388 251Z" />
<glyph unicode="r" glyph-name="r" horiz-adv-x="208" d="M276 357Q276 333 258 321T218 308Q211 308 201 311T191 323Q191 334 202 334Q206 334 209 333T218 331Q229 331 237 338T245 356Q245 390 208 390Q198 390 189 385T171 373Q150 356 136 332T113 281T101
226T97 172V49L151 54Q156 54 159 52T163 44Q163 39 161 36T153 32L-3 17Q-7 16 -11 19T-15 27Q-15 38 -5 39L54 45L34 380L-26 378Q-31 378 -34 380T-38 388Q-38 400 -27 400L85 405Q96 405 96 394V347Q116 377 143 394T208 412Q234 412 255 399T276 357Z" />
<glyph unicode="s" glyph-name="s" horiz-adv-x="277" d="M110 497L99 398L88 497L29 443L84 504L32 514L84 523L29 584L88 530L99 629L110 530L169 584L114 523L166 514L114 504L169 443L110 497ZM255 78Q255 58 245 43T220 18T187 3T150 -2Q137 -2 118 1T82
11T52 29T39 59Q39 76 50 86T79 97Q92 97 106 88T120 63Q120 52 109 52Q103 52 101 55T97 63T92 71T79 75Q66 75 66 59Q66 48 76 41T100 29T128 23T150 21Q159 21 169 22T188 28T202 40T208 59Q208 71 194 79T160 94T115 109T71 130T36 162T22 210Q22 233 31 252T55
286T91 309T133 319Q141 319 150 319T167 318Q187 318 203 322T227 348Q229 356 237 356Q242 356 245 353T249 345L239 221L236 177Q236 172 233 170T224 167Q219 167 217 170T214 179Q215 192 216 204T218 230Q218 265 196 281T141 297Q113 297 93 283T73 238Q73
216 86 201T120 175T164 154T208 134T241 110T255 78Z" />
<glyph unicode="t" glyph-name="t" horiz-adv-x="169" d="M197 543Q197 538 195 535T187 530L100 519Q95 422 91 325T87 129Q87 122 87 102T89 59T98 19T117 1Q128 1 135 6T146 19T151 37T153 56Q153 67 163 67Q175 67 175 53Q175 39 171 23T159 -7T139 -30T110
-40Q83 -40 68 -17T45 37T37 101T35 150Q35 241 38 331T43 512L-16 505Q-20 504 -24 506T-28 514Q-28 526 -18 527L44 535L46 601Q48 609 54 611Q56 612 62 614T74 618T85 623T93 625Q104 625 104 613Q104 596 103 578T101 542L185 552Q189 553 193 551T197 543Z"
/>
<glyph unicode="u" glyph-name="u" horiz-adv-x="287" d="M315 66Q315 54 304 54L224 48Q214 48 212 58L207 116Q193 90 171 73T116 56Q88 56 70 69T40 104T25 150T20 197Q20 225 22 252T27 307L-16 304Q-21 304 -24 307T-28 315Q-28 326 -18 326L75 332Q81 333
84 329T87 320Q87 309 85 297T81 273Q77 241 74 208T70 142Q70 132 72 121T80 100T94 84T116 78Q145 78 161 102T185 159T196 226T198 280Q198 291 197 301T196 323Q196 335 206 335L245 339Q250 340 254 337T257 328L252 73L303 76Q308 76 311 74T315 66Z" />
<glyph unicode="v" glyph-name="v" horiz-adv-x="237" d="M305 384Q305 375 295 373L253 370L120 -8Q118 -16 109 -16Q101 -16 99 -8Q97 -1 89 29T69 101T44 189T19 275T1 341T-6 370Q-16 368 -26 367T-47 366Q-58 366 -58 377Q-58 386 -48 388L81 400H82Q87 401
90 398T94 389Q94 380 83 378L55 376L125 72L229 369Q218 368 207 367T184 366Q173 366 173 377Q173 388 184 388Q210 390 239 392T294 395Q305 395 305 384Z" />
<glyph unicode="w" glyph-name="w" horiz-adv-x="417" d="M150 467L139 368L128 467L69 413L124 474L72 484L124 493L69 554L128 500L139 599L150 500L209 554L154 493L206 484L154 474L209 413L150 467ZM465 256Q465 245 454 245L417 244L315 54Q311 48 306 48Q300
48 296 54L211 205L122 49Q119 43 112 43Q106 43 102 50L14 248L-27 247Q-38 247 -38 258Q-38 269 -27 269L110 271Q115 271 118 268T122 260Q122 249 111 249L73 248L127 103L217 260Q220 266 227 266Q234 266 237 260L323 115L392 243L350 242Q346 242 343 245T339
253Q339 264 350 264L454 267Q465 267 465 256Z" />
<glyph unicode="x" glyph-name="x" horiz-adv-x="300" d="M318 78Q318 73 315 70T307 66L164 60Q159 60 156 62T152 70Q152 82 163 82L205 84L137 163L61 87L110 89Q115 90 118 87T121 79Q121 69 111 67L-26 61Q-31 61 -34 64T-38 72Q-38 83 -27 83L29 86Q31 89
44 102T73 131T103 161T122 180L29 288L-13 286Q-18 285 -21 288T-25 296Q-25 301 -23 304T-15 308L124 315Q129 316 132 313T136 305Q136 300 134 297T126 293L96 292L156 214L227 286L185 283Q180 283 177 286T173 294Q173 304 184 306L305 312Q310 312 313 309T317
301Q317 290 306 290L260 287L170 197Q172 194 185 177T214 139T242 103T255 86L306 88Q311 89 314 86T318 78Z" />
<glyph unicode="y" glyph-name="y" horiz-adv-x="293" d="M271 17Q271 -26 265 -69T241 -147T191 -204T105 -226Q82 -226 59 -221T16 -203T-16 -173T-28 -127Q-28 -98 -6 -82T43 -66Q63 -66 79 -83T96 -119Q96 -130 85 -130Q79 -130 76 -124T69 -109T59 -95T41
-88Q24 -88 13 -99T2 -127Q2 -145 11 -159T34 -184T65 -199T98 -204Q132 -204 155 -188T192 -148T213 -94T219 -36Q219 2 219 39T218 115Q212 100 204 86T184 61T158 43T126 36Q97 36 73 58Q59 70 50 88T36 127T29 168T27 207Q27 241 29 275T35 344L-11 340Q-16
340 -19 342T-23 350Q-23 362 -13 362L84 370Q96 370 96 357Q96 343 94 328T90 299Q86 259 82 219T78 139Q78 129 80 115T87 88T102 67T126 58Q146 58 160 72T184 110T198 161T207 218T210 269T211 307Q211 321 210 334T209 361Q209 367 214 370T226 375T240 377T252
378Q262 379 264 367Q266 359 266 350T265 331L267 247Q269 189 270 132T271 17Z" />
<glyph unicode="z" glyph-name="z" horiz-adv-x="212" d="M228 456Q228 455 216 419T186 330T146 213T105 94T71 -4T53 -54L184 -49L185 16Q185 27 196 27Q207 27 207 16L206 -60Q206 -71 195 -71L16 -78Q5 -78 5 -66Q5 -65 15 -29T42 60T77 177T113 296T142 394T157
445H37Q39 428 40 412T42 378Q42 367 31 367Q21 367 19 378Q18 397 16 416T14 456Q14 467 25 467H217Q228 467 228 456Z" />
<glyph unicode="{" glyph-name="braceleft" horiz-adv-x="290" d="M398 -297Q398 -307 388 -309Q346 -310 304 -311T220 -312Q181 -312 157 -294T130 -234L114 129L26 202Q22 206 22 211Q22 214 33 228T60 258T89 290T107 309Q103 387 100 465T94 621V624Q94 639
99 652T114 676T137 693T165 700L345 704Q356 704 356 693Q356 682 346 682L261 680Q228 679 215 662T202 613L199 309Q199 305 187 292T160 263T132 234T114 215L193 143Q197 139 197 135L193 -222Q193 -255 211 -272T262 -289Q294 -289 325 -288T387 -286Q398
-286 398 -297Z" />
<glyph unicode="|" glyph-name="bar" horiz-adv-x="188" d="M122 -203Q122 -214 112 -214Q104 -215 97 -215T81 -216Q71 -216 69 -206L42 710Q42 720 52 722Q72 724 94 726T135 729Q146 729 146 718L122 -203Z" />
<glyph unicode="}" glyph-name="braceright" horiz-adv-x="290" d="M268 181Q268 177 257 163T230 133T202 102T184 83Q187 5 190 -73T196 -229V-232Q196 -247 191 -260T176 -284T153 -301T125 -308L-55 -312Q-66 -312 -66 -301Q-66 -290 -55 -290L29 -288Q62
-287 75 -270T89 -221L92 83Q92 87 103 100T130 129T159 158T177 176L97 249Q94 252 94 257L97 614Q98 647 79 664T28 681Q-3 681 -34 680T-97 678Q-108 678 -108 689Q-108 699 -97 701Q-55 702 -14 703T70 704Q109 704 134 686T161 626L176 263L264 189Q268 186
268 181Z" />
<glyph unicode="~" glyph-name="asciitilde" horiz-adv-x="679" d="M656 392Q656 386 647 375T626 353T603 332T588 319Q550 290 510 273T420 255Q385 255 358 271T307 305T256 340T196 356H188Q120 350 70 302Q65 297 61 293T52 283Q50 281 49 280T43 278Q32
278 32 289Q32 294 38 301T54 317T71 332T82 341Q122 372 164 391T259 410Q297 410 324 394T377 360T427 325T483 309H489Q565 315 617 373Q622 379 626 385T635 397Q640 403 645 403Q656 403 656 392Z" />
</font>
</defs>
</svg>
